<?xml version="1.0" standalone="no"?>
<!DOCTYPE svg PUBLIC "-//W3C//DTD SVG 1.1//EN" "http://www.w3.org/Graphics/SVG/1.1/DTD/svg11.dtd">
<svg xmlns="http://www.w3.org/2000/svg">
<defs >
<font id="AmaticSC" horiz-adv-x="349" ><font-face
    font-family="Amatic SC"
    units-per-em="1000"
    panose-1="0 0 8 0 0 0 0 0 0 0"
    ascent="1016"
    descent="-245"
    alphabetic="0" />
<glyph unicode=" " glyph-name="space" horiz-adv-x="183" />
<glyph unicode="!" glyph-name="exclam" horiz-adv-x="207" d="M100 149T91 174Q82 200 82 251Q82 269 84 319Q86 356 86 401L84 565L82 729Q82 745 95 756T124 768Q134 768 141 761T148 743Q148 655 138 504Q127 337 127 265Q127 212 126 189T121 157T110 149Q100
149 91 174ZM80 -22T70 -11T59 16Q59 34 71 47T100 61Q118 61 129 48T141 13Q141 -22 92 -22Q80 -22 70 -11Z" />
<glyph unicode="&quot;" glyph-name="quotedbl" horiz-adv-x="333" d="M107 583T106 641T104 748Q104 758 110 764T124 771Q144 771 147 745L148 741V738Q148 692 136 638T111 583H108Q107 583 106 641ZM204 583T199 645T194 748Q194 757 203 764T224 771Q236
771 241 748Q240 710 231 641Q224 583 212 583H208Q204 583 199 645Z" />
<glyph unicode="#" glyph-name="numbersign" horiz-adv-x="421" d="M226 -40T226 -18Q226 45 241 136Q255 232 257 284Q227 286 188 286L164 284Q161 267 160 234Q152 119 145 63Q140 17 130 -11Q121 -39 109 -39Q98 -39 90 -33T81 -18Q81 100 116 281L86 279Q45
279 45 311Q45 333 92 333H109H122Q131 385 137 463L112 461Q65 461 65 490V495L80 511H95H110Q131 511 141 512L150 574Q163 658 163 711V720V729Q163 747 168 756T188 765H196L207 742Q207 703 198 628Q189 553 189 517Q195 515 216 515H233Q263 515 276 519Q286
562 302 677Q306 708 313 750Q324 765 338 765Q346 765 354 759T362 745Q362 708 345 632Q328 561 326 521H358L379 498Q377 488 375 483T367 473Q360 468 353 468L320 470Q310 418 308 341H313H318Q360 341 360 311Q360 286 322 286H319L305 287Q303 266 294 190Q277
51 277 -19L260 -40Q226 -40 226 -18ZM231 334T256 337Q270 423 272 465Q250 469 225 469Q199 469 183 466Q170 415 167 335Q170 334 180 334Q231 334 256 337Z" />
<glyph unicode="$" glyph-name="dollar" horiz-adv-x="413" d="M206 -126T206 -95V-87Q205 -78 205 -54L204 -21L186 -22Q150 -22 124 -9Q108 0 108 12Q108 24 113 31T130 39Q141 39 160 31Q179 23 186 23Q192 23 202 25L193 316L191 378Q128 464 105 509T81 608Q81
650 107 689T180 750L179 785Q179 812 192 812Q201 812 207 801T214 774V761Q248 769 275 769Q293 769 310 759T334 732L317 711Q303 711 282 715Q256 718 244 718Q230 718 216 715L230 401Q254 370 268 349T300 297Q332 236 332 167Q332 113 311 65T252 -5V-81Q252
-126 223 -126Q206 -126 206 -95ZM188 494Q185 561 182 700Q157 684 143 660T129 614Q129 575 144 538T189 458L188 494ZM264 77T275 110T286 168Q286 236 234 316L246 55Q264 77 275 110Z" />
<glyph unicode="%" glyph-name="percent" horiz-adv-x="576" d="M97 342T77 368Q55 397 49 430Q40 471 38 504Q37 534 37 568Q37 615 53 680Q62 715 79 736T119 758Q231 758 231 560V557H230Q222 534 222 451Q221 419 214 395T189 357Q168 342 132 342Q97 342
77 368ZM174 7T174 25Q174 86 222 276Q266 449 306 596L326 670L335 702Q336 720 343 735T363 750Q374 750 382 743T390 726Q390 656 301 324Q262 176 257 150Q255 143 252 123Q243 73 232 42Q225 21 215 9T193 -4Q174 7 174 25ZM185 391T185 533Q185 708 123 708Q111
708 98 653T85 569Q85 539 87 509Q90 472 100 430Q105 412 112 402T130 391Q185 391 185 533ZM392 1T377 14T353 50Q336 91 330 143Q328 171 328 181Q328 214 330 244Q331 280 340 319Q347 354 369 382Q387 409 423 409Q444 409 460 401T488 378Q511 343 516 308Q522
274 522 233V185Q522 117 501 66Q489 36 466 19T410 1Q392 1 377 14ZM473 57T473 188V228Q473 264 464 305Q459 329 448 343T420 358Q406 358 396 335Q382 305 377 221Q376 205 376 179Q376 153 388 105T413 57Q473 57 473 188Z" />
<glyph unicode="&amp;" glyph-name="ampersand" horiz-adv-x="483" d="M151 -6T118 19T67 83Q50 122 50 158Q50 203 58 249Q59 264 69 291Q72 302 75 311T81 327Q88 343 98 366T117 403Q120 412 139 447Q139 474 135 515Q132 560 132 584V667Q132 702 149 720T194
739Q233 739 265 712T297 649Q297 590 278 543T216 446Q214 444 207 432Q190 408 190 398Q190 370 208 305T250 180T291 102Q322 171 322 278V283Q314 283 313 286L310 290L308 295Q307 297 307 298T305 300V325Q332 325 367 328T418 338Q447 332 447 312Q447 298
432 291T395 284L393 285H392H367Q367 126 326 71Q356 40 389 40L410 42L430 43L448 28Q448 9 436 2T397 -5Q351 -5 301 32Q243 -6 188 -6Q151 -6 118 19ZM207 507T229 549T252 616Q252 637 236 665T203 693Q189 693 177 669V616L178 549Q179 519 179 481V470Q207
507 229 549ZM213 36T236 44T270 63Q178 194 149 371Q96 286 96 175Q96 124 119 83Q131 61 151 49T197 36Q213 36 236 44Z" />
<glyph unicode="&apos;" glyph-name="quotesingle" horiz-adv-x="263" d="M114 583T109 644T104 748Q104 757 113 764T133 771Q151 771 160 748L157 745L158 741V738Q158 692 146 638T121 583H118Q114 583 109 644Z" />
<glyph unicode="(" glyph-name="parenleft" horiz-adv-x="291" d="M197 -176T173 -122Q135 -32 106 179Q95 262 90 329T84 430Q84 458 91 517T112 640Q123 703 146 756Q168 806 192 806H196L214 792Q214 763 192 722L178 691Q157 638 146 568T134 429Q134 285
152 153T209 -63Q214 -75 224 -92Q246 -133 252 -156L251 -155Q242 -176 224 -176Q197 -176 173 -122Z" />
<glyph unicode=")" glyph-name="parenright" horiz-adv-x="306" d="M55 -148T47 -142T39 -125Q39 -110 67 -61Q80 -38 81 -35Q117 44 141 172T166 398Q166 477 155 557T122 691Q117 703 107 720Q95 743 90 757T85 786V792L104 806Q132 806 155 753Q191 670 209
492Q216 435 216 399V398Q216 363 204 277T172 96Q153 1 124 -74Q94 -148 65 -148Q55 -148 47 -142Z" />
<glyph unicode="*" glyph-name="asterisk" horiz-adv-x="456" d="M101 359V364Q103 384 137 453Q169 517 177 535H59Q42 535 36 540T29 562Q29 571 35 577T51 584H170L159 607Q133 658 124 678Q114 696 109 712Q104 725 104 733Q104 743 112 749T131 755Q143 755
158 727Q172 700 188 659Q199 626 205 614L213 641Q226 684 240 720Q259 765 279 765Q290 765 298 757T307 738Q307 714 268 629Q259 611 255 600T247 583Q273 581 292 581L321 583L358 585Q409 585 409 555Q409 530 374 530L309 532Q280 534 244 534Q251 516 282
457Q318 387 318 367Q318 356 311 349T292 342Q275 342 266 359T254 401L212 494Q206 480 204 472L194 445Q168 370 146 337H123L101 359Z" />
<glyph unicode="+" glyph-name="plus" horiz-adv-x="439" d="M201 163T192 170T182 188Q182 204 179 237Q175 265 175 285V292L149 291Q129 288 120 288Q77 288 77 320Q77 330 83 338T100 346L129 344L159 342Q168 342 182 344L179 379Q176 405 176 417Q176 473
208 473Q219 473 226 465T233 444V432L234 407Q234 397 235 391Q235 372 238 357Q240 349 242 346Q244 342 247 342L272 344Q285 346 305 346Q356 346 356 316Q356 304 348 297T328 289Q319 289 299 292L269 294Q237 294 237 270Q237 260 242 230Q247 200 247 190Q247
178 237 171T214 163Q201 163 192 170Z" />
<glyph unicode="," glyph-name="comma" horiz-adv-x="199" d="M76 -94Q66 -94 64 -85V-79L88 -49Q101 -31 105 -16Q106 -13 106 -7Q106 -1 105 2Q89 2 81 11T69 41Q66 59 79 68T114 78Q145 78 151 45Q155 20 137 -21T91 -88Q85 -93 79 -94H76Z" />
<glyph unicode="-" glyph-name="hyphen" horiz-adv-x="377" d="M100 320T90 328T80 349Q80 361 104 370Q138 383 222 388Q254 390 263 390Q276 390 286 382T296 361Q296 349 272 340Q238 327 154 322Q122 320 113 320Q100 320 90 328Z" />
<glyph unicode="." glyph-name="period" horiz-adv-x="289" d="M124 -16T114 -5T104 20Q104 35 115 47T141 59Q155 59 166 47T177 21Q177 5 166 -5T137 -16Q124 -16 114 -5Z" />
<glyph unicode="/" glyph-name="slash" horiz-adv-x="368" d="M83 -26T80 -20T76 -4Q76 3 79 15L166 363Q252 710 268 758Q269 765 277 765Q285 765 290 759T295 742L294 734Q281 663 240 496T158 178T98 -15Q95 -26 88 -26Q83 -26 80 -20Z" />
<glyph unicode="0" glyph-name="zero" horiz-adv-x="321" d="M44 3T44 565V597Q44 672 61 714Q69 738 86 750T129 763Q272 763 272 254Q272 3 165 3Q44 3 44 565ZM190 49T200 79Q217 123 224 226Q226 248 226 277Q226 344 220 455Q213 560 189 645Q178 688 160
713T118 741Q103 729 98 716T92 681Q92 626 94 583L96 483Q96 470 101 435Q106 398 106 386Q106 362 109 276Q113 194 128 125Q135 90 147 70T174 49Q190 49 200 79Z" />
<glyph unicode="1" glyph-name="one" horiz-adv-x="269" d="M88 -4T81 1T74 23Q74 34 79 38T100 42Q122 42 122 59Q122 158 107 351Q92 545 92 639Q92 648 93 656V675Q93 722 59 722H48L36 721Q7 721 7 743Q7 769 88 769Q131 769 139 752Q133 725 133 710Q133
683 141 619Q148 562 148 527Q148 456 159 291Q170 145 170 53V47Q174 47 181 48T195 49Q199 50 207 50Q249 50 249 25Q249 -4 135 -4H119H105Q88 -4 81 1Z" />
<glyph unicode="2" glyph-name="two" horiz-adv-x="343" d="M70 -7T60 1T49 23V27Q69 51 89 107Q98 134 104 146Q163 277 190 382T217 604Q217 729 169 732Q153 724 147 685Q145 669 137 659T117 648Q93 648 93 679Q93 726 121 758Q136 774 157 774V775Q191 775
214 760Q231 750 246 722Q254 706 261 669Q263 651 263 636T265 613V586Q265 518 249 439T209 297Q183 226 157 162Q126 84 112 42Q169 52 230 52Q251 37 251 24Q251 12 238 2Q219 2 184 -1L162 -2Q120 -7 85 -7Q70 -7 60 1Z" />
<glyph unicode="3" glyph-name="three" horiz-adv-x="334" d="M125 -10T102 10Q88 21 88 37Q88 47 91 50T105 54Q113 54 119 48Q127 40 134 36T154 31Q215 31 215 144Q215 196 214 221T208 283Q196 363 154 415Q152 414 144 414Q131 414 122 419T113 434Q113 451
146 484Q159 498 168 519T177 562Q177 603 168 653Q163 683 152 702T125 721Q114 721 106 713T93 693Q90 681 81 673T59 664Q48 664 40 671T29 691Q43 726 68 747T127 768Q150 768 169 754T199 715Q209 692 216 662T225 604Q227 585 227 549Q227 535 223 521T213
499Q208 488 197 475L182 453Q205 439 223 405T250 326Q266 242 266 176Q266 135 261 96Q254 54 232 23Q211 -10 162 -10Q125 -10 102 10Z" />
<glyph unicode="4" glyph-name="four" horiz-adv-x="303" d="M188 -19T179 -4T170 29V32Q175 52 175 68Q175 86 172 117Q168 146 168 166V188Q169 197 169 209Q169 220 167 240L141 237Q121 234 112 234Q93 234 73 250Q73 271 78 289Q73 314 73 345Q73 374 81
448Q88 512 88 549V734Q88 747 95 750Q100 753 107 753Q120 753 128 747T137 729Q137 707 135 690L133 651V642Q132 638 132 633Q132 625 134 615V611Q137 586 137 558Q137 509 130 431Q123 353 123 304Q123 297 125 281Q148 283 161 287Q161 323 166 428Q170 512
170 566Q170 576 178 582T196 589L212 571V523Q212 393 210 291Q211 291 213 291T222 292Q229 293 239 293Q269 293 269 272Q269 248 229 248Q212 248 212 239Q212 197 215 142T223 76Q221 68 221 57Q221 44 225 37V19Q225 3 220 -8T202 -19Q188 -19 179 -4Z" />
<glyph unicode="5" glyph-name="five" horiz-adv-x="330" d="M120 -18T120 10Q120 21 129 27T150 33Q166 33 176 24Q198 32 213 76T228 160Q228 210 227 245Q224 290 217 326Q213 347 208 361T193 392Q179 417 147 430Q130 435 114 435Q91 435 83 454Q78 469 78
492Q78 500 81 518L83 543Q83 589 78 628L65 711L59 752L76 770H157Q199 770 199 744V739L180 724H155V727H113Q114 677 132 489L152 487Q174 485 194 480Q205 477 213 471Q234 456 250 405T271 298Q276 245 276 212Q276 166 274 136Q273 115 270 103T260 69Q254
52 246 39T223 11Q209 -3 191 -18H184H174Q120 -18 120 10Z" />
<glyph unicode="6" glyph-name="six" horiz-adv-x="283" d="M107 -7T84 54Q60 114 55 191Q49 261 49 345V392V430Q49 774 157 774Q165 774 172 768T180 754Q180 742 169 733T142 720Q130 709 120 656T104 545L99 463Q109 465 114 465Q137 465 156 450T188 410Q210
369 224 286Q232 222 234 160V115Q234 96 233 80T228 47Q223 29 215 18T191 0Q174 -7 154 -7Q107 -7 84 54ZM188 36T188 104Q188 163 176 281Q168 347 155 384Q140 426 120 431Q107 421 103 409T98 376Q98 349 99 332L100 295Q101 239 107 182Q112 129 126 80Q139
36 162 36Q188 36 188 104Z" />
<glyph unicode="7" glyph-name="seven" horiz-adv-x="300" d="M73 12Q73 30 84 65L91 89Q131 237 154 405T181 729Q171 731 158 731Q148 731 94 725L60 722Q50 727 44 734T37 751Q37 772 163 772H181Q197 772 204 771T220 763Q226 759 232 744Q216 666 189 396Q180
299 165 205T131 58V49Q131 29 120 12T92 -5L73 12Z" />
<glyph unicode="8" glyph-name="eight" horiz-adv-x="314" d="M138 -40T122 -26T96 11Q81 51 81 97Q81 157 104 265Q127 371 127 421Q127 448 117 484T93 554Q79 589 69 626T59 694Q59 733 77 759T128 785H149Q181 764 192 747Q200 735 204 727T209 703Q211 683
211 641Q211 609 209 591L206 568Q205 554 198 519Q194 501 194 498Q193 493 188 470L182 444L176 421Q211 341 233 240T255 58Q255 54 256 51V44L255 34L254 30V29Q224 -40 160 -40Q138 -40 122 -26ZM167 567T167 641Q167 667 160 703T142 740H121Q107 724 107
690Q107 659 119 596T145 492Q167 567 167 641ZM186 3T197 20T209 68Q209 133 196 200T155 366Q141 320 134 245T127 93V92Q127 66 140 40V35Q141 23 147 13T161 3Q186 3 197 20Z" />
<glyph unicode="9" glyph-name="nine" horiz-adv-x="281" d="M136 2Q151 49 151 335Q151 373 150 400L149 455Q93 468 58 509T22 607Q22 655 32 697Q39 725 49 743T77 775Q94 788 119 788Q167 788 185 767T203 693Q203 597 197 405Q191 212 191 116Q191 105 188
81Q184 58 184 44Q184 39 185 35V24Q185 6 176 -5T151 -17L136 2ZM155 576T155 697Q155 722 148 734T119 746Q106 746 96 730T80 688Q71 639 71 609Q71 586 74 569Q76 559 79 554L84 542Q86 537 92 532L101 523Q106 519 113 515T123 508Q124 507 127 506T136 501L150
493Q155 576 155 697Z" />
<glyph unicode=":" glyph-name="colon" horiz-adv-x="289" d="M130 464T120 475T110 500Q110 515 121 527T147 539Q161 539 172 527T183 501Q183 485 172 475T143 464Q130 464 120 475ZM120 86T110 97T100 122Q100 137 111 149T137 161Q151 161 161 150T172 123Q172
107 161 97T133 86Q120 86 110 97Z" />
<glyph unicode=";" glyph-name="semicolon" horiz-adv-x="298" d="M149 465T139 475T129 500Q129 515 140 527T166 539Q180 539 191 528T202 501Q202 485 191 475T162 465Q149 465 139 475ZM133 15Q128 15 125 18T122 25V31L146 61Q161 82 163 94Q164 97 164 103Q164
109 163 112Q147 112 139 121T127 151Q124 169 137 178T171 188Q210 188 210 146Q210 120 193 83T149 22Q143 18 137 16L133 15Z" />
<glyph unicode="&lt;" glyph-name="less" horiz-adv-x="378" d="M252 -11T228 18T179 97Q143 170 101 283Q81 333 77 341Q78 358 111 450T182 621Q221 707 235 707H236L238 706L260 689Q256 656 237 605T192 506Q134 390 134 343Q134 336 200 198T286 24H299Q297
9 291 -1T272 -11Q252 -11 228 18Z" />
<glyph unicode="=" glyph-name="equal" horiz-adv-x="431" d="M208 374Q201 375 194 375T180 376H175L158 375H137Q77 375 77 403Q77 414 83 420T100 426H279Q356 426 356 399Q356 373 251 373L208 374ZM223 285Q153 288 117 288Q77 288 77 310Q77 320 83 326T100
332H250Q352 332 352 306Q352 296 346 290T328 283L223 285Z" />
<glyph unicode="&gt;" glyph-name="greater" horiz-adv-x="378" d="M89 -11T83 -5T77 12Q77 29 110 95T196 260Q235 334 235 343Q235 370 223 406T191 479L179 503Q176 510 156 549T124 625Q110 662 110 689L137 706V705Q156 696 193 618T263 448Q291 364 293
341L117 -9L107 -10Q104 -11 98 -11Q89 -11 83 -5Z" />
<glyph unicode="?" glyph-name="question" horiz-adv-x="266" d="M107 109T103 131Q103 192 112 264T140 439L145 468Q159 555 159 614Q159 707 129 707Q110 707 110 662Q110 651 117 608Q117 607 112 602Q95 587 87 587Q59 587 59 654V664Q59 690 64 708T85 741Q102
755 127 755Q149 755 165 747T191 725Q207 701 211 654Q212 643 212 615Q212 527 182 423Q169 380 160 315T151 179Q151 124 152 112Q134 112 132 110Q130 109 127 109Q107 109 103 131ZM112 -4T103 8Q92 18 92 33Q92 47 104 59T131 72Q143 72 155 59T167 34Q167
-4 127 -4Q112 -4 103 8Z" />
<glyph unicode="@" glyph-name="at" horiz-adv-x="571" d="M44 -59T44 467Q44 504 45 535T50 605Q54 647 62 675T88 739Q104 772 127 792T188 826Q223 839 270 839Q312 839 348 824T411 780Q435 754 454 716T486 636Q508 557 515 459Q518 419 518 375Q518 340
515 314Q512 279 500 250Q489 219 463 206Q449 198 432 198Q407 198 381 253Q364 207 335 178T274 149Q241 149 216 172Q196 189 182 229Q171 262 167 305Q163 349 163 382V416Q163 456 164 485Q167 522 173 557Q180 587 197 618Q206 632 216 640T243 654Q258 660
276 660Q320 660 352 618Q365 600 376 572T393 515Q405 460 411 389L417 328Q418 313 421 276V271L436 249Q445 254 451 280T460 335Q461 351 461 379Q461 456 452 527Q440 614 413 675Q397 710 377 734T329 772Q300 787 265 787Q204 787 166 754Q150 740 137 718T118
672Q112 652 109 622T104 567L103 513V454Q103 397 105 348Q108 278 117 210Q129 130 148 81Q170 21 207 -2Q224 -15 249 -15Q287 -15 321 -7T376 16Q393 26 413 42Q431 58 443 65T464 73Q473 73 473 63Q473 51 458 32T418 -8Q390 -30 344 -44T247 -59Q44 -59 44
467ZM295 200T310 217T337 257T348 295V371Q348 429 335 510Q327 554 312 581T276 608Q249 608 231 547Q215 487 215 403Q215 322 232 260Q250 200 282 200Q295 200 310 217Z" />
<glyph unicode="A" glyph-name="A" horiz-adv-x="350" d="M242 0T235 6T227 26V157Q214 166 178 173T110 182Q99 161 94 131L90 111Q89 104 84 80T73 39T61 11Q23 11 17 31Q28 47 42 125L75 308Q97 438 115 530T155 684Q178 753 199 753Q220 753 231 745Q231 705
250 552Q270 402 270 347Q270 294 281 195Q291 94 291 34Q291 0 258 0Q242 0 235 6ZM214 215T226 218Q223 262 216 327Q193 553 193 604V612Q183 602 166 522T133 349T117 227Q159 215 206 215Q214 215 226 218Z" />
<glyph unicode="B" glyph-name="B" horiz-adv-x="314" d="M61 -8T61 17L63 140L65 263Q65 330 62 466Q59 601 59 669V675Q59 701 64 723Q70 750 96 750Q166 750 207 705T248 586Q248 541 224 492T167 419Q225 380 252 319T280 183Q280 148 256 96Q227 34 177 7Q147
-8 111 -8H107Q61 -8 61 17ZM143 440T161 477Q176 505 189 545Q192 556 199 573V608Q199 638 177 666T127 694Q113 694 113 663Q113 597 115 545L117 434Q143 440 161 477ZM170 51T199 89T228 180Q228 226 221 264T201 323Q190 342 179 355T160 372L152 375H116Q121
260 121 44Q170 51 199 89Z" />
<glyph unicode="C" glyph-name="C" horiz-adv-x="337" d="M170 -16T147 -3T106 32Q91 53 79 85T61 153Q49 212 45 308Q44 331 44 387V450Q45 477 45 506Q45 565 52 599Q49 614 49 630Q49 690 94 727T208 764Q234 764 256 750T278 715Q278 705 270 699T250 693Q240
693 229 696T214 705H201V707Q164 707 139 691Q121 678 111 648Q107 637 105 620T103 589Q102 581 102 557L104 522L105 488Q105 473 101 453Q96 428 96 418V394Q96 355 99 287Q100 230 112 173Q121 120 146 83Q170 45 211 45Q228 45 253 63Q280 81 291 81Q305
81 320 66Q320 29 292 9Q266 -9 230 -14Q210 -16 198 -16Q170 -16 147 -3Z" />
<glyph unicode="D" glyph-name="D" horiz-adv-x="379" d="M91 -2T77 7T62 32Q84 54 84 149Q84 206 75 315Q65 419 65 479L67 534Q68 558 68 589Q68 617 58 660Q46 705 46 723Q46 758 123 758H138Q192 758 232 725Q264 697 286 644Q301 608 312 544Q318 488 318
456V424V377Q316 373 316 369Q316 361 317 357Q318 353 318 347Q318 315 309 271T281 180Q236 70 180 24Q147 -2 111 -2Q91 -2 77 7ZM169 79T197 122T240 219Q267 317 267 417Q267 471 257 535Q246 597 210 647Q193 671 167 684T108 698V697Q108 607 120 425Q132
244 132 151V56Q169 79 197 122Z" />
<glyph unicode="E" glyph-name="E" horiz-adv-x="278" d="M98 -6T84 -1Q67 4 67 27V608Q67 625 61 659Q54 690 54 710V713Q71 741 79 749Q93 749 116 753Q137 757 153 757Q169 757 184 748T199 725Q199 695 153 695H139Q133 696 125 696Q116 696 114 695Q114 661
118 613L120 585L122 530Q122 511 119 472L117 416L131 419Q151 425 164 425Q175 425 184 417T193 397Q193 385 186 376T167 366L155 367H142Q127 367 121 360V51L177 54Q234 54 234 28V24Q228 12 212 5T181 -5L148 -6H117Q98 -6 84 -1Z" />
<glyph unicode="F" glyph-name="F" horiz-adv-x="265" d="M84 -1T84 63Q84 179 74 434T54 703Q54 731 76 746Q84 751 98 754T125 758Q131 759 150 759Q173 759 183 752T193 725Q193 714 185 709T165 703L155 704H141Q113 704 113 693Q113 641 120 557Q126 487
128 424Q135 426 154 430T184 435Q195 435 203 426T211 404Q211 390 198 384Q196 383 189 380T169 375Q160 374 139 372H128Q128 312 138 209Q147 101 147 46L146 42L145 40Q146 36 146 27Q146 14 137 7T113 -1Q84 -1 84 63Z" />
<glyph unicode="G" glyph-name="G" horiz-adv-x="371" d="M165 -26T129 7Q100 31 76 89Q61 127 52 196Q45 252 45 302Q44 315 44 347V381V421Q44 464 47 524Q51 575 63 628Q76 680 101 716Q126 754 168 770Q193 777 215 777Q257 777 257 749Q257 738 250 732T230
725Q226 725 216 728L202 730Q183 730 168 719T143 685Q120 637 112 580Q101 510 100 458Q98 413 98 363V336Q97 322 97 301Q97 250 102 201Q106 143 124 101Q140 54 176 35Q193 25 218 25Q262 25 292 67Q291 102 287 135T275 181Q274 181 271 181T260 179L236
177Q202 177 202 206Q202 215 212 222T239 232Q267 239 289 239Q309 239 320 224T331 186Q331 153 341 96Q351 40 351 7Q351 -4 344 -12T327 -20Q302 -20 293 1V2L271 -9Q241 -26 220 -26Q165 -26 129 7Z" />
<glyph unicode="H" glyph-name="H" horiz-adv-x="330" d="M222 -15T216 -6T209 18Q209 227 201 371Q177 375 167 375Q126 375 108 368Q108 312 117 199Q125 79 125 29Q125 19 119 11T104 2Q91 2 80 48Q64 116 54 333Q47 480 47 649Q46 680 46 737Q46 755 63 755Q73
755 83 750T99 739Q95 707 95 664Q95 622 99 562Q102 493 102 458V440Q101 432 101 421Q101 411 103 395Q109 395 123 396T151 399Q184 402 200 402Q200 489 198 563L196 730V757Q209 757 219 753T234 741Q243 730 245 703V680Q245 594 255 351Q264 131 264 21Q264
7 256 -4T235 -15Q222 -15 216 -6Z" />
<glyph unicode="I" glyph-name="I" horiz-adv-x="257" d="M37 1T37 31Q37 55 67 55H79Q83 54 88 54Q96 54 99 59T103 77Q103 162 93 309Q84 462 84 540Q84 568 85 591L86 642Q86 675 83 697Q72 693 60 693Q37 693 37 717Q37 729 51 738T89 751Q131 758 160 758Q172
758 180 750T189 731Q189 720 183 712T166 704Q160 704 156 705H148Q138 705 134 701T129 684Q129 578 142 392Q154 197 154 99V61Q161 62 174 62Q216 62 216 27V21L191 4Q190 4 185 4T165 3Q131 1 123 1Q37 1 37 31Z" />
<glyph unicode="J" glyph-name="J" horiz-adv-x="268" d="M55 -95T45 -87T35 -64Q35 -53 47 -41T74 -23Q89 -4 101 36T114 118L115 167Q116 188 116 215L115 256L110 357Q103 555 88 706Q85 704 75 703Q59 698 45 698Q35 698 28 705T20 723Q20 758 139 758H152Q166
758 174 757T189 749Q197 743 197 731Q197 705 155 705Q155 705 155 705T154 706H152H139V698Q139 672 145 621Q150 563 150 543Q150 472 160 349Q168 233 168 154V114V74Q168 14 143 -32T71 -95Q55 -95 45 -87Z" />
<glyph unicode="K" glyph-name="K" horiz-adv-x="356" d="M289 -23T283 -21Q278 -20 272 -20Q245 133 218 236T150 430L129 391Q120 374 119 361Q116 331 116 317Q116 287 119 225Q122 164 122 132V50Q122 -3 88 -3Q59 -3 59 53Q59 97 65 188Q72 272 72 322L73
408V512Q73 567 66 627Q59 689 59 721Q59 734 67 743T87 752Q124 752 124 671L120 466L139 515Q172 599 207 681Q227 726 243 752Q260 779 270 779Q281 779 289 772T298 753Q298 743 244 629Q191 520 182 484V466Q197 428 262 223T327 5Q327 -7 318 -15T295 -23Q289
-23 283 -21Z" />
<glyph unicode="L" glyph-name="L" horiz-adv-x="250" d="M93 -11T83 -2T72 21Q72 30 76 43Q79 57 79 64Q79 153 69 406Q59 622 59 747Q59 756 66 761T83 767Q95 767 104 759T113 738Q113 678 119 558Q124 425 124 378L125 366V354V347V342Q128 255 128 82V56H205Q226
41 226 26Q226 15 219 7T201 -2Q198 -2 190 0L186 1Q180 0 167 0H150Q143 1 134 1Q124 -11 106 -11Q93 -11 83 -2Z" />
<glyph unicode="M" glyph-name="M" horiz-adv-x="453" d="M338 -26T332 -16T326 13L325 161Q324 180 324 224Q322 317 322 434V485Q313 437 291 350Q269 260 260 202V196L257 177Q255 155 247 132Q237 108 216 108Q180 108 180 202Q180 254 170 313T136 460L106
572L104 452Q104 398 109 246L111 178L113 41Q113 20 98 3Q73 3 64 18T54 64L56 146Q59 200 59 227L57 420L55 614Q55 657 57 743L84 759Q92 758 100 748T118 714Q143 652 183 466Q189 440 191 423Q203 365 208 335L223 258L230 291L249 373Q265 445 275 499T296
616Q307 691 310 741V747Q312 760 322 767T346 775Q355 775 362 767T369 750Q369 630 378 391Q383 274 385 162Q387 111 387 33Q387 10 375 -8T348 -26Q338 -26 332 -16Z" />
<glyph unicode="N" glyph-name="N" horiz-adv-x="412" d="M287 -15T225 191Q155 432 104 634V306Q104 264 112 163Q119 53 119 21Q119 12 108 6T83 -1Q62 -1 62 15L64 44Q66 76 66 86Q66 139 60 254Q54 371 54 396V524Q54 555 57 616Q61 669 61 708V714Q61 764
83 764Q96 764 116 720Q149 648 200 462Q229 354 268 184Q267 188 284 115L285 110Q285 207 287 284L289 458V754Q293 779 321 779Q348 779 348 740V734Q342 722 342 705Q342 644 339 521Q336 397 336 335V30Q336 14 328 0T307 -15Q287 -15 225 191Z" />
<glyph unicode="O" glyph-name="O" horiz-adv-x="355" d="M164 -28T142 -10T104 39Q75 93 61 187Q51 252 46 337L45 390V444Q44 470 44 507Q44 567 49 613Q53 661 69 708Q85 749 115 766Q133 774 151 774Q204 774 235 732Q269 685 280 627Q296 557 298 493Q302
422 302 359V302Q302 285 297 238Q293 201 293 175V171Q287 143 287 105Q287 77 275 47T241 -4Q219 -28 191 -28Q164 -28 142 -10ZM213 27T227 64Q239 97 244 144T254 252Q256 278 256 319L255 411Q253 465 243 546Q235 615 213 668Q203 693 188 707T156 721Q131
721 119 682Q104 641 99 592Q93 539 92 491L91 458Q90 444 90 420V416Q90 349 104 251Q120 118 151 62Q171 27 193 27Q213 27 227 64Z" />
<glyph unicode="P" glyph-name="P" horiz-adv-x="288" d="M83 -5T77 4T70 28L72 196Q75 318 75 385Q75 618 49 742Q64 765 87 765Q124 765 154 749T205 704Q244 646 244 574Q244 499 212 440T119 348L121 247L123 194Q124 177 124 145Q127 78 127 36Q127 17 119
6T94 -5Q83 -5 77 4ZM156 433T174 473T193 565V566Q193 589 188 624Q185 636 177 648T168 662Q161 672 131 693L105 712Q105 661 111 554L117 396Q156 433 174 473Z" />
<glyph unicode="Q" glyph-name="Q" horiz-adv-x="398" d="M273 -138T248 -124V-123Q221 -111 210 -79Q203 -53 197 -18Q193 6 192 10H151Q98 45 73 102Q62 126 55 157T46 218Q44 236 44 280L46 362Q49 416 49 443L48 475V514Q48 574 52 610Q58 660 73 701Q89 744
121 761Q138 770 158 770Q185 770 208 759T248 729Q275 697 292 625Q304 560 306 493Q307 472 307 424V370Q306 347 306 322V277Q306 187 295 137T245 34L249 14Q255 -25 262 -47Q272 -83 287 -83H291Q309 -83 319 -85Q334 -90 334 -107Q334 -138 290 -138Q273
-138 248 -124ZM187 40Q194 53 214 53V52Q251 86 251 160V429Q251 493 248 536Q244 592 230 641Q223 666 213 682T186 709Q169 720 150 720Q132 720 120 668Q100 589 95 410Q93 340 93 319Q93 276 98 220Q103 159 124 102Q134 74 150 58T187 39V40Z" />
<glyph unicode="R" glyph-name="R" horiz-adv-x="289" d="M226 -10T208 17V20Q205 73 190 138T146 295Q124 364 109 419V25Q109 9 104 2T82 -6Q70 -6 63 1T56 21V29L58 323Q60 453 60 616V739Q60 751 65 755T86 760Q111 760 132 751T168 724Q199 689 208 640Q212
620 212 594Q212 579 210 561T206 538Q204 528 197 508T188 482L176 454L166 428Q167 392 178 337T204 235Q214 202 240 125L269 37V35Q269 18 266 6Q263 -10 245 -10Q226 -10 208 17ZM121 478T141 503L156 589Q157 594 157 603Q157 632 146 670Q140 688 131 700T111
714L109 614Q106 547 106 510Q106 475 107 464Q121 478 141 503Z" />
<glyph unicode="S" glyph-name="S" horiz-adv-x="307" d="M81 -22T55 -9Q39 0 39 12Q39 24 45 31T62 39Q72 39 91 31Q112 23 117 23Q136 23 151 39T176 83Q194 133 194 173Q194 216 181 263T144 356L128 388Q103 438 90 467T66 530Q51 578 51 623Q51 659 63 691T101
745Q126 769 163 769Q181 769 198 759T222 732L205 711Q179 711 166 721Q148 719 135 704T114 668Q108 649 108 630Q108 592 118 553T146 478L216 338Q233 302 243 257T253 167Q253 101 221 43Q204 13 177 -4T117 -22Q81 -22 55 -9Z" />
<glyph unicode="T" glyph-name="T" horiz-adv-x="262" d="M120 -7T112 7T103 43Q103 76 107 124L109 150L111 203Q111 238 104 359Q97 480 97 515Q97 518 97 526T98 553Q99 573 99 602Q99 675 89 695Q83 695 63 692L35 690Q22 690 12 697T2 717Q2 729 26 738Q61
750 145 755Q179 757 186 757Q198 757 208 749T218 729Q218 717 210 710T188 702L170 703Q162 704 152 704H142Q149 636 149 581L148 517Q147 488 147 452Q147 404 151 337Q156 254 156 222Q156 184 160 132Q164 79 164 42Q164 -7 135 -7Q120 -7 112 7Z" />
<glyph unicode="U" glyph-name="U" horiz-adv-x="401" d="M172 -18T136 36Q97 91 81 171Q63 256 58 353Q53 441 53 544V627Q54 662 54 701Q46 709 46 721Q46 733 55 742T75 752Q111 752 111 681Q111 635 116 507Q121 379 121 333Q126 320 130 281T135 217Q135
195 142 163T162 97Q175 62 196 40T240 17Q254 17 263 26T276 52Q282 80 282 107V302Q282 339 275 396Q269 459 269 491V498Q269 514 268 527L267 556Q267 584 264 641Q260 692 260 727Q260 738 271 746T297 754L322 731V714Q322 702 318 685Q314 657 314 653Q314
562 324 402Q333 234 333 141Q333 91 323 53Q317 30 307 16T278 -8Q261 -18 234 -18Q172 -18 136 36Z" />
<glyph unicode="V" glyph-name="V" horiz-adv-x="350" d="M161 -17T152 -6Q126 102 81 385Q31 687 20 744Q24 763 47 763Q64 763 89 635Q115 506 140 343L167 166Q183 286 192 346Q211 484 220 574T229 746Q244 766 265 766L286 755L271 620Q266 558 246 395L237
329Q226 241 215 163Q200 50 187 6Q181 -17 175 -17Q161 -17 152 -6Z" />
<glyph unicode="W" glyph-name="W" horiz-adv-x="494" d="M123 -14T123 62Q123 110 82 405T29 728Q42 752 64 752Q87 752 107 648Q126 538 139 396L146 315Q152 247 153 246L163 330L169 382Q182 496 186 543Q191 605 191 628V647Q191 658 199 668T217 678Q253
678 253 648V633Q253 576 264 511T298 354Q312 301 326 225Q329 258 345 385Q361 501 368 582T376 735Q376 758 383 767T412 777Q424 777 433 770T443 750Q443 739 433 727Q433 655 422 559T395 375Q379 290 368 193T357 21Q357 5 350 -4T327 -14Q316 -14 301 27Q282
84 254 254L236 371L227 436Q214 345 208 290T195 158Q188 85 188 14Q188 4 180 -5T160 -14Q123 -14 123 62Z" />
<glyph unicode="X" glyph-name="X" horiz-adv-x="304" d="M51 -6T43 -1T34 13Q34 16 35 16Q74 173 99 282Q119 371 119 400Q119 423 113 456T84 589L60 697Q57 709 57 715Q57 729 63 735T80 742Q95 742 102 718Q110 691 125 611L129 593L137 554L151 482L175 599L194
691Q204 731 209 743Q217 757 226 757Q236 757 243 751T250 735Q250 709 216 579Q195 500 185 455T175 389Q175 379 194 283T227 121L234 93Q244 55 244 39Q244 13 226 13Q201 13 197 37Q193 57 182 118L174 164Q155 269 146 307Q96 83 86 47Q72 -6 62 -6Q51 -6
43 -1Z" />
<glyph unicode="Y" glyph-name="Y" horiz-adv-x="265" d="M121 -12T114 -5T106 12L108 109Q111 174 111 206Q111 235 102 292Q92 348 92 379Q92 417 81 466T53 560Q37 603 26 652T15 739Q15 746 23 751T40 756Q51 756 61 733Q73 707 84 660T97 604L110 535L120
491Q123 507 125 533Q131 616 140 671Q147 709 156 729Q166 751 180 751Q207 751 207 741Q207 684 183 573Q159 462 159 404L157 388Q155 373 156 370V354Q156 311 159 222L161 89L163 66L165 42V17Q165 5 155 -3T131 -12Q121 -12 114 -5Z" />
<glyph unicode="Z" glyph-name="Z" horiz-adv-x="261" d="M35 -9T24 15Q46 49 74 196T123 502Q143 657 145 708L109 705Q102 704 88 704Q34 704 34 735V740L47 756V757Q59 753 76 753Q92 753 123 759Q158 764 170 764Q182 764 189 756T197 735Q197 472 86 42L108
43Q121 45 139 45Q192 45 192 15V10L176 -5L115 -7Q87 -9 53 -9Q35 -9 24 15Z" />
<glyph unicode="[" glyph-name="bracketleft" horiz-adv-x="315" d="M165 -55T128 -49Q104 -46 90 -38T76 -17Q76 20 87 106Q97 185 97 229Q97 299 110 476Q123 633 123 723V733Q122 737 122 742Q122 754 126 760T142 770H180Q204 770 233 765Q250 762 260 755T271
738Q271 728 263 722T244 715Q232 715 216 719Q198 722 188 722Q169 722 169 712Q169 585 149 365Q130 138 130 23V3H140Q229 3 229 -33Q229 -44 220 -49T197 -55Q165 -55 128 -49Z" />
<glyph unicode="\" glyph-name="backslash" horiz-adv-x="359" d="M240 -15T219 43Q184 134 137 373Q118 466 104 543L85 641L77 670Q64 711 64 735Q64 745 72 752T91 759Q101 759 115 732T145 650Q196 483 258 152Q280 29 280 15Q280 0 257 -15Q240 -15 219 43Z" />
<glyph unicode="]" glyph-name="bracketright" horiz-adv-x="319" d="M86 -55T86 -33Q86 -20 96 -13Q97 -12 103 -8T119 -2Q131 0 133 0L148 2Q159 2 162 3H175H185V23Q182 122 164 355Q146 586 146 712V721Q135 721 114 718Q92 715 80 715Q44 715 44 738Q44 753
71 763Q85 767 120 770H138Q145 770 149 771H159Q179 771 185 762T192 723Q192 649 206 486Q220 323 220 249Q220 200 230 116Q240 18 240 -17Q240 -29 226 -37T188 -49Q151 -55 119 -55Q86 -55 86 -33Z" />
<glyph unicode="^" glyph-name="asciicircum" horiz-adv-x="363" d="M264 169T255 206Q250 220 247 236T242 260L239 277Q217 365 188 561Q184 545 180 520T174 482L171 460L163 397Q153 335 122 180L103 172Q95 174 89 179T83 190Q83 210 99 277Q101 285 112
362Q121 423 125 443T140 507L152 563L154 585Q155 617 163 648Q168 668 178 678T204 688L220 675Q220 642 224 598Q226 564 233 522L244 447Q250 405 277 293L286 263L298 216Q304 196 304 188Q304 182 298 176T284 169Q264 169 255 206ZM198 631L183 602L198
573V631Z" />
<glyph unicode="_" glyph-name="underscore" horiz-adv-x="526" d="M143 -46T131 -39T119 -24Q119 -14 126 -7T144 0H465H489Q500 1 513 1Q525 1 531 -4T537 -18Q537 -26 529 -33T510 -40L466 -41L312 -43Q208 -46 158 -46Q143 -46 131 -39Z" />
<glyph unicode="`" glyph-name="grave" horiz-adv-x="378" d="M298 674T252 687T165 716T125 737Q125 749 136 762T158 776Q164 776 205 755T281 712T316 681Q316 674 309 674Q298 674 252 687Z" />
<glyph unicode="a" glyph-name="a" horiz-adv-x="299" d="M235 -9T224 -2T213 24Q213 54 203 126L199 147L100 162Q94 139 83 69Q77 20 64 4Q57 -5 44 -5Q32 -5 22 2T12 21L14 26L15 30Q81 287 115 537Q115 541 116 550T118 578Q121 615 124 637T136 670H170Q184
670 194 664T204 645Q204 569 225 419Q245 265 245 203Q245 197 250 172Q255 149 255 142Q255 135 265 82Q274 34 274 20V19Q274 -3 258 -9Q235 -9 224 -2ZM189 198T189 220Q189 310 173 450L163 554Q120 319 104 199Q119 189 192 183Q189 198 189 220Z" />
<glyph unicode="b" glyph-name="b" horiz-adv-x="285" d="M68 -10T63 9Q59 21 59 43Q59 86 63 149Q68 209 68 256Q68 309 71 415L73 573Q73 582 70 600L67 625V630Q67 653 74 664T100 675Q126 675 157 660T202 622Q231 574 231 502Q231 448 222 412T191 344Q218
318 227 278T237 176Q237 115 216 70Q192 19 146 0Q118 -10 90 -10Q68 -10 63 9ZM174 374T174 494Q174 623 133 629Q122 606 122 521V373Q174 374 174 494ZM148 48T166 79T184 150Q184 192 179 224Q175 249 169 265T151 296Q139 311 123 314Q119 257 119 163Q119
157 117 125L115 91Q115 89 116 88V86V41Q148 48 166 79Z" />
<glyph unicode="c" glyph-name="c" horiz-adv-x="279" d="M173 -14T149 -8T111 7Q44 50 44 242V269V300V324Q44 364 45 395T49 464Q52 503 58 527T78 583Q90 612 107 628T153 655Q178 666 215 666Q230 666 238 659T246 641Q246 631 240 623T224 614H177Q157 614
142 589T121 524Q108 450 108 404V399L106 303Q104 260 104 206Q104 168 107 144Q112 108 124 84Q136 57 165 45Q180 39 198 39Q209 39 220 47Q233 47 241 42T250 25Q250 -14 195 -14Q173 -14 149 -8Z" />
<glyph unicode="d" glyph-name="d" horiz-adv-x="346" d="M67 -6T67 125L69 283Q70 353 70 440Q70 472 64 539Q59 612 59 628Q59 641 70 651T94 661Q129 661 161 646T219 602Q272 541 289 468Q298 431 298 395Q298 382 297 371L296 344V289Q296 225 292 188Q286
138 269 99Q249 57 211 24Q193 9 165 -6H93Q67 -6 67 125ZM157 45T174 55T203 84Q213 100 221 124T234 172Q243 217 245 264Q246 276 246 299Q246 601 129 614Q122 569 122 510Q122 447 130 290Q137 151 137 69V45Q157 45 174 55Z" />
<glyph unicode="e" glyph-name="e" horiz-adv-x="284" d="M94 -13T84 -4T72 18V44V64Q71 73 71 85Q71 106 68 149L66 213Q66 262 69 359Q73 446 73 505Q73 519 70 547Q67 576 67 589Q67 660 109 660Q142 660 185 647T229 616Q229 606 221 598T200 584Q158 599
124 604Q125 589 125 561Q125 521 124 489Q121 441 121 417L124 401L140 402Q148 403 160 403Q208 403 208 375Q208 364 199 357T176 349Q158 349 148 351H123Q125 325 125 275Q125 225 124 185Q121 124 121 94Q121 38 123 38L156 39Q173 40 197 40Q235 40 235
16Q235 2 223 -5T192 -13H107Q94 -13 84 -4Z" />
<glyph unicode="f" glyph-name="f" horiz-adv-x="247" d="M67 -9T46 6Q54 89 59 261Q64 440 66 476V500Q70 598 70 636Q70 650 81 658T108 666Q143 666 183 660Q209 656 224 647T240 625Q240 597 189 597Q170 607 137 607H125V595Q125 556 121 496Q116 440 116
395V368H124H134Q183 368 183 342Q183 329 173 321T147 313Q123 313 108 318V35Q108 -9 82 -9Q67 -9 46 6Z" />
<glyph unicode="g" glyph-name="g" horiz-adv-x="346" d="M163 -8T140 2T101 30Q88 44 77 71T61 123Q56 142 53 178T49 240V298V338Q49 396 51 433Q53 478 64 528Q73 573 95 607Q116 641 154 654Q172 661 196 661Q239 661 239 636Q239 624 230 617T207 609Q201
609 196 610Q192 611 186 611Q169 611 156 593T134 543Q118 481 112 408Q108 340 108 307Q108 273 111 214Q115 159 128 118Q135 94 144 80T169 55Q186 44 204 44Q252 44 252 204V250Q245 253 229 253H220H209Q174 253 174 276Q174 290 183 297T208 305V304H222Q312
304 312 273Q312 264 307 237Q301 213 301 201Q301 184 304 148L306 95Q306 47 273 20T191 -8Q163 -8 140 2Z" />
<glyph unicode="h" glyph-name="h" horiz-adv-x="331" d="M203 0T203 165L204 222L205 268V271V281Q206 289 206 300Q206 302 203 305Q200 308 200 310V311Q195 309 182 309Q169 309 150 313Q144 314 118 318V203Q118 177 121 121Q124 66 124 39Q124 24 116 13T95
2Q76 2 68 39Q60 77 60 138L62 219Q63 253 63 291V308V322Q63 338 62 343V348L65 406Q65 444 62 519Q59 594 59 632Q59 644 67 653T87 662Q119 662 119 602L117 478Q115 422 115 353Q130 348 169 348H206Q208 354 208 360Q208 408 202 502Q195 590 195 645Q195
656 203 663T224 671Q231 671 244 666L253 662Q253 520 263 283L272 30Q272 16 262 8T237 0Q203 0 203 165Z" />
<glyph unicode="i" glyph-name="i" horiz-adv-x="226" d="M24 1T24 31Q24 55 55 55H66L76 54Q84 54 87 59T90 77Q90 94 88 130Q85 154 81 216Q72 369 72 447Q72 475 73 498L74 549Q74 582 71 604Q55 600 48 600Q24 600 24 624Q24 636 39 645T77 658Q117 666 148
666Q160 666 168 658T177 638Q177 627 171 619T154 611Q148 611 144 612H136Q126 612 122 608T117 591Q117 494 129 299Q131 263 137 193Q142 147 142 99V61Q148 62 162 62Q204 62 204 27V21L179 4Q178 4 173 4T152 3Q120 1 111 1Q24 1 24 31Z" />
<glyph unicode="j" glyph-name="j" horiz-adv-x="254" d="M-2 -94T-2 -82V-74Q-1 -70 -1 -65Q-1 -61 13 -55Q61 -40 78 -22Q106 9 106 91Q106 157 101 347Q95 514 95 602V606Q92 606 86 607T71 608Q53 610 42 613Q27 617 21 623Q19 627 19 631Q19 640 29 647T51
654Q101 654 165 647T229 631Q229 621 222 615T202 608H151Q151 555 156 397Q161 280 161 187V80Q161 45 156 21Q149 -16 128 -43Q106 -74 62 -87Q40 -94 9 -94Q-2 -94 -2 -82Z" />
<glyph unicode="k" glyph-name="k" horiz-adv-x="350" d="M274 -17T248 33Q209 108 171 280Q160 327 153 367Q117 295 117 193V8Q117 -15 97 -15Q82 -15 73 -7T63 17V320Q63 364 73 482Q83 585 83 644Q91 663 112 663Q125 663 134 654T143 632V629Q130 607 130
447V411L167 484Q201 555 231 606Q259 656 272 656Q288 656 299 649T311 629L287 589Q212 468 203 449Q203 432 202 419L201 389Q201 346 235 229T293 73L306 55Q325 29 325 9Q325 -2 317 -9T297 -17Q274 -17 248 33Z" />
<glyph unicode="l" glyph-name="l" horiz-adv-x="268" d="M179 -4T126 -4Q110 -14 92 -14Q80 -14 72 -4T63 19Q63 103 70 243Q76 392 76 466V473Q70 536 70 567Q70 662 105 662Q115 662 122 655T130 637Q130 625 127 599Q124 574 124 561Q124 494 125 440Q126
387 126 320Q121 305 121 278V266L119 187Q117 152 117 107Q117 38 150 38Q152 38 156 38T169 39Q178 40 192 40Q246 40 246 10Q246 0 237 -7T215 -16Q179 -4 126 -4Z" />
<glyph unicode="m" glyph-name="m" horiz-adv-x="561" d="M433 -52T433 10V74V138Q433 188 426 269Q418 360 418 394L420 456Q422 483 422 517Q418 504 389 379Q360 258 329 155Q299 56 280 56Q261 56 250 67T238 99Q238 143 203 286T138 520L132 407Q124 264
121 169Q119 77 119 43Q119 35 120 28V14Q120 -3 113 -11T87 -20Q77 -20 68 -13T59 4Q59 106 74 310Q89 514 89 616Q83 625 83 635Q83 647 94 653T122 660Q135 660 170 566T240 353T285 181Q293 208 298 231L304 255Q336 395 368 508Q387 577 405 616Q423 658 438
658Q452 658 463 651T475 631Q475 559 481 415Q488 281 488 207L487 154L485 101Q485 89 488 65L491 30Q492 21 492 16T493 10Q498 -3 498 -9Q498 -26 488 -39T464 -52Q433 -52 433 10Z" />
<glyph unicode="n" glyph-name="n" horiz-adv-x="479" d="M322 -3T316 3T307 26L301 45V47V50Q301 83 233 275T125 559V56L129 49Q130 47 133 42T136 32Q136 19 127 10T105 1Q73 1 73 62L72 233Q71 310 71 405Q71 437 74 498Q77 561 77 591Q77 638 113 665V659Q119
661 121 661Q144 661 179 581Q207 517 229 446T289 244L299 208Q322 127 334 92Q354 307 354 600V613Q353 619 353 626Q353 656 377 656Q391 656 398 645T406 617V542Q404 388 394 208T370 5Q341 -3 334 -3Q322 -3 316 3Z" />
<glyph unicode="o" glyph-name="o" horiz-adv-x="360" d="M152 -19T130 -3T94 42Q65 103 58 175Q49 243 49 306Q49 318 50 326V344Q50 349 49 349V367L50 437Q51 469 58 539Q63 587 81 632Q88 652 99 662T124 673Q164 673 196 659T250 618Q270 593 284 557T304
479Q310 437 310 390V382Q310 351 311 326L312 269Q312 -19 178 -19Q152 -19 130 -3ZM192 23T207 37T230 77Q249 128 253 187Q258 238 258 275Q258 320 251 393Q245 470 245 508V526Q243 564 220 592T162 620Q128 620 117 581Q107 550 107 501Q107 482 108 469V442L106
396Q104 375 104 350Q104 296 107 243Q111 168 127 97Q143 23 174 23Q192 23 207 37Z" />
<glyph unicode="p" glyph-name="p" horiz-adv-x="281" d="M83 -7Q70 46 70 140L72 229Q74 269 74 318Q68 332 68 343V346Q78 365 78 432L79 478Q80 500 80 527Q80 586 72 620Q75 634 82 644T99 655H143Q171 655 192 643T224 607Q244 566 244 510Q244 470 243 447Q241
418 233 394Q230 381 225 373T209 352Q195 335 163 320Q150 313 129 307V200L131 136L133 105Q137 49 137 10Q137 -2 127 -10T104 -19L83 -7ZM189 357T189 517Q189 546 186 562Q183 574 178 581T163 594Q152 600 139 600Q139 601 128 601V544Q128 485 129 439Q129
387 130 371V350V348Q189 357 189 517Z" />
<glyph unicode="q" glyph-name="q" horiz-adv-x="358" d="M270 -211Q214 -211 193 -188Q193 -168 190 -142L188 -121Q181 -80 180 -76L175 -52Q171 -30 171 -30Q116 -17 91 24Q64 67 56 125Q49 174 49 249Q49 283 50 310V368Q50 403 56 478Q63 547 87 606Q99 636
118 652T163 668Q171 665 187 662Q204 657 208 655Q255 637 277 590Q299 544 304 493Q309 446 309 396L308 300Q305 237 297 169Q291 107 271 46Q252 -10 220 -24Q220 -56 236 -117Q242 -135 247 -159Q293 -159 293 -188Q293 -198 287 -205T270 -212V-211ZM182
9T197 9Q208 9 222 56T246 163T256 250V424Q256 629 157 629Q140 629 128 591Q109 535 102 405Q99 365 99 341L100 267Q101 241 105 185Q105 175 107 153Q111 104 128 49Q142 3 168 3Q182 9 197 9Z" />
<glyph unicode="r" glyph-name="r" horiz-adv-x="295" d="M214 -17T196 31Q175 83 165 138L158 172Q129 315 121 335H109Q109 306 108 282V227Q108 93 127 18L116 -9H88L75 6L76 73Q76 163 67 346Q59 541 59 619Q59 667 92 667Q146 667 180 639T215 561V491Q215
476 210 457T199 425L180 389L164 359L169 335L183 264Q197 187 210 139T242 52L248 40Q258 20 258 8Q258 -2 252 -9T236 -17Q214 -17 196 31ZM135 395T150 444T166 536Q166 568 158 596Q153 612 142 620T113 629L111 624L109 615L111 497Q113 445 113 384Q135
395 150 444Z" />
<glyph unicode="s" glyph-name="s" horiz-adv-x="247" d="M61 -11T49 -1T34 25L45 42Q51 42 64 38Q79 35 87 35Q105 35 119 51T141 93Q154 141 154 179Q154 245 112 318L101 337Q82 370 69 396T47 452Q35 491 35 530Q35 574 55 622Q65 645 83 659T125 674Q143
674 158 663T174 635Q174 626 167 621T150 616Q139 616 129 622Q107 621 94 583Q83 548 83 525Q83 496 92 467T115 413L137 373L172 307Q186 279 194 242T203 167Q203 106 175 51Q161 23 136 6T79 -11V-14Q61 -11 49 -1Z" />
<glyph unicode="t" glyph-name="t" horiz-adv-x="256" d="M117 16L116 55Q115 72 115 93L116 127Q113 138 101 346T87 613Q29 615 13 625Q2 633 2 643Q2 651 12 657T34 664Q62 664 102 660Q140 655 170 655H178H186Q217 655 217 631Q217 619 207 612T184 604Q175
604 158 607L138 611L137 606L136 601Q136 512 153 317Q169 134 169 33Q169 21 159 12T135 3L117 16Z" />
<glyph unicode="u" glyph-name="u" horiz-adv-x="361" d="M144 -15T125 -5T94 26Q70 68 63 121Q56 167 56 231Q53 339 53 495L52 572Q51 578 51 592Q49 630 49 638Q58 659 70 659Q82 659 91 641T101 602V330Q101 290 108 224Q115 142 115 118Q115 44 178 44Q250
44 250 582V638V647Q249 650 249 655Q249 667 254 672T276 678Q289 678 296 671T306 653Q307 647 307 630Q307 614 304 579Q300 550 300 529Q300 506 298 488L296 446V438Q297 434 297 429Q297 -15 168 -15Q144 -15 125 -5Z" />
<glyph unicode="v" glyph-name="v" horiz-adv-x="352" d="M138 3Q138 118 117 241T49 542Q47 552 40 573Q22 629 22 644Q22 653 29 660T46 667Q61 667 74 642Q87 618 98 578T122 477Q134 420 151 302L157 263L169 174Q173 137 176 121Q197 231 230 439Q257 617
268 682H290Q299 682 306 676T313 660Q313 624 305 583T279 483Q265 433 261 408T252 329Q244 208 227 112Q216 54 198 21T157 -12L138 3Z" />
<glyph unicode="w" glyph-name="w" horiz-adv-x="429" d="M114 -21T99 39Q86 92 78 170T60 369Q55 447 46 536Q39 610 29 631Q38 649 58 649Q90 649 90 583Q90 505 111 355Q132 206 135 138L140 172Q150 239 157 298T170 427Q177 504 177 579L204 591Q217 591
225 585T234 566V558Q250 502 260 436T279 279Q285 210 293 150Q312 284 312 480Q312 511 320 556Q327 602 327 631Q324 640 324 648Q324 672 354 672Q366 672 373 666T380 649V634Q380 619 377 608V603Q364 563 364 511V438Q364 375 349 250Q333 128 333 68V50Q333
27 328 11Q322 -9 299 -9Q283 -9 275 1T266 28Q266 109 249 238Q240 296 230 355L214 460Q210 431 210 403Q210 347 202 255T177 76Q158 -21 134 -21Q114 -21 99 39Z" />
<glyph unicode="x" glyph-name="x" horiz-adv-x="243" d="M57 -3T48 3T39 20Q39 52 47 91T72 186L82 225Q96 281 96 322Q96 351 71 465T34 595V606Q24 615 24 631Q24 640 33 645T54 651Q66 651 74 634Q89 606 104 531Q112 497 115 474L122 437Q122 437 126 461L129
481Q133 505 134 513Q138 540 138 565V583V598Q138 626 147 641T183 663L201 639Q194 628 190 612T185 584Q184 577 184 553V542Q172 510 159 431T146 315Q146 284 159 237T200 105Q218 51 218 26Q218 16 210 9T191 1Q174 1 161 37Q148 67 139 113Q127 169 125
188L120 211L111 137Q105 82 95 45V34Q95 -3 69 -3Q57 -3 48 3Z" />
<glyph unicode="y" glyph-name="y" horiz-adv-x="283" d="M126 -14T115 8Q126 29 126 178Q126 213 121 254L118 283Q115 310 115 324V350Q105 375 79 443T36 557Q17 610 17 629V634L40 651Q57 649 76 607Q92 570 111 501T131 428Q135 439 147 503Q159 567 174
616Q191 665 209 665Q219 665 226 659T234 644Q234 593 206 500Q176 399 176 354V53Q176 -14 143 -14Q126 -14 115 8Z" />
<glyph unicode="z" glyph-name="z" horiz-adv-x="292" d="M65 -2T57 4T49 21Q49 81 72 179T141 421Q186 570 197 613Q185 613 158 610Q131 607 115 607Q105 607 97 615T89 635Q89 664 199 664Q249 664 249 636Q249 604 227 541Q206 485 201 456Q191 385 149 224L105
51H123L144 53Q153 54 165 54V55Q205 55 205 30Q205 19 195 13T170 6Q154 6 141 7L111 9Q105 9 94 3Q81 -2 76 -2Q65 -2 57 4Z" />
<glyph unicode="{" glyph-name="braceleft" horiz-adv-x="320" d="M161 -23T139 6T117 97V303Q117 324 110 336T93 350Q92 350 73 353Q49 353 49 374Q49 398 73 398Q86 399 94 402T110 415Q117 427 117 447L114 494L112 552Q112 587 118 599Q116 617 116 625Q116
672 142 701T216 730Q247 730 271 718Q286 711 286 701Q286 691 278 685T258 678Q251 678 233 683Q215 688 208 688Q161 688 161 565Q161 542 163 519L165 462Q165 398 147 375Q164 353 164 304V89Q164 19 208 19Q219 19 238 25Q260 30 268 30Q271 30 273 22T276
8Q276 -3 265 -10T240 -21Q224 -23 216 -23Q161 -23 139 6Z" />
<glyph unicode="|" glyph-name="bar" horiz-adv-x="174" d="M65 -39T65 56Q65 169 62 397Q59 624 59 737Q59 773 93 773Q102 773 108 766T114 749Q114 592 115 467L116 185V-14Q116 -24 109 -31T90 -39Q65 -39 65 56Z" />
<glyph unicode="}" glyph-name="braceright" horiz-adv-x="315" d="M72 -23T49 -12Q34 -5 34 6Q34 16 42 22T62 28Q73 28 86 24Q104 19 111 19Q159 19 159 141L157 195Q154 237 154 261Q154 331 173 356Q155 379 155 427L157 477Q160 521 160 550Q160 688 111
688Q102 688 82 682Q63 676 52 676Q49 676 47 684T44 699Q44 710 55 718T80 728Q96 730 104 730Q158 730 180 701T203 610V428Q203 410 207 399T220 384Q233 377 250 377Q266 377 266 357Q266 333 244 333Q231 332 224 330T210 317Q203 305 203 284L205 231Q207
202 207 161Q207 118 202 108Q204 92 204 81Q204 34 178 6T104 -23Q72 -23 49 -12Z" />
<glyph unicode="~" glyph-name="asciitilde" horiz-adv-x="475" d="M284 507T248 513T196 527Q156 549 139 549Q125 543 127 530V527Q127 515 113 511Q97 511 87 518T77 540Q77 564 97 581T149 598Q173 598 236 578Q298 557 317 557Q334 557 338 577Q340 585 345
591T360 597Q376 597 384 590T393 571Q393 546 374 527T329 507Q284 507 248 513Z" />
<glyph unicode="&#xa0;" glyph-name="uni00A0" horiz-adv-x="183" />
<glyph unicode="&#xa1;" glyph-name="exclamdown" horiz-adv-x="217" d="M98 591T87 605T76 640Q76 675 125 675Q137 675 147 664T158 636Q158 618 146 605T117 591Q98 591 87 605ZM83 -115T76 -108T68 -91Q68 -19 79 148Q89 299 89 387V411Q88 421 88 435Q88
481 98 496Q103 503 107 503Q117 503 126 479Q134 452 134 417Q134 370 132 333L130 251Q130 197 133 87L135 -77Q135 -92 122 -103T93 -115Q83 -115 76 -108Z" />
<glyph unicode="&#xa2;" glyph-name="cent" horiz-adv-x="413" d="M199 7Q201 15 201 32Q201 50 199 65L197 99H196Q196 113 198 125L200 153Q158 168 134 192Q120 206 113 217T100 243Q95 258 92 272T87 306Q85 333 85 379Q85 431 88 465Q93 511 110 548Q127
589 165 612L159 668Q159 711 185 711H188L203 701Q200 683 200 669Q200 655 205 612L222 608Q246 602 259 596Q279 587 289 574Q294 565 295 557H294V554Q294 545 288 537T273 529Q263 529 254 537T240 557L212 571H209Q211 508 225 393Q239 267 239 209V203L238
197L239 191Q265 191 284 211Q292 220 298 228T313 250Q342 250 342 220Q342 204 326 188T286 160T243 147Q239 124 239 108Q239 93 242 61Q246 33 246 14Q246 4 239 -3T222 -10H218L199 7ZM193 406T165 549Q149 526 141 481T133 386Q133 218 193 207Q193 406 165
549Z" />
<glyph unicode="&#xa3;" glyph-name="sterling" horiz-adv-x="396" d="M92 3Q80 4 72 10T63 26Q63 51 102 65Q120 73 126 77Q140 88 148 121T157 187Q157 225 150 263T125 361L104 437Q59 437 59 448V451Q59 458 61 461T71 468Q79 472 96 472Q96 492 90 537Q84
581 84 604Q84 647 93 691Q99 722 108 743T134 781Q151 797 174 797H187Q204 797 223 777T256 729Q268 702 268 685Q268 674 265 669T252 664Q238 664 229 672T216 694L208 719Q205 733 197 741T177 750Q166 750 157 735T143 697Q132 651 132 620V607Q132 518 142
477Q170 477 192 478H242Q252 478 259 471T267 453Q267 450 263 449Q257 446 223 444Q209 442 190 442L152 439Q155 420 171 359Q187 303 195 262T204 185Q204 162 199 142L188 102Q185 96 181 83Q201 81 244 71Q284 61 311 61Q318 61 338 66Q353 71 364 71Q375
71 383 64T391 47Q391 32 373 23Q351 13 319 13Q289 13 244 22Q194 32 182 33V35Q171 34 141 23T92 1V3Z" />
<glyph unicode="&#xa4;" glyph-name="currency" horiz-adv-x="492" d="M376 95T365 102T353 123V121L340 143Q293 100 224 100Q177 100 135 142Q122 115 114 106Q103 98 93 98Q78 98 70 108T62 135Q62 150 89 175L104 191Q88 220 88 277Q88 474 123 526Q119 534
98 555Q76 576 76 590Q76 600 83 606T99 613Q107 613 113 610Q116 610 119 607L125 604Q130 599 130 599L135 594L144 583L148 578L152 572Q156 578 162 585T174 599Q178 602 187 611T203 624Q209 627 215 627Q272 627 324 594Q334 609 339 619Q351 640 362 650T387
660H392L413 637Q412 625 402 608T377 575Q366 561 366 557Q366 530 388 469Q410 410 410 377Q410 344 394 286Q377 223 377 193Q377 179 396 157Q415 137 415 121Q415 110 408 103T391 95Q376 95 365 102ZM266 149T287 166T320 210Q342 258 350 330Q352 366 352
380Q352 412 343 460T322 523Q312 524 305 533T297 553Q274 577 237 577Q229 577 211 563T185 537L192 530Q192 493 169 493Q161 493 152 435T142 340H143Q144 334 144 327Q144 315 143 307Q142 297 142 286Q142 228 168 206Q168 177 187 163T241 149Q266 149 287
166Z" />
<glyph unicode="&#xa5;" glyph-name="yen" horiz-adv-x="483" d="M217 -4T208 2T198 20V22Q206 42 212 171T219 377H215L169 375Q137 372 123 372H116L101 373Q83 382 74 402L82 427Q123 427 223 431Q224 439 224 466V468L194 465Q158 463 149 463Q84 463 84 493V497L97
516L136 515Q153 514 174 514Q200 514 224 517V523Q182 565 143 647Q123 691 108 720T74 778Q53 808 26 833V861L27 859Q44 866 52 866Q68 866 98 830T157 745L213 649L248 589L268 656L274 677Q294 745 306 782T334 853Q356 895 371 895Q382 895 390 887T399 868L398
863L354 733Q330 668 314 604Q311 591 299 562Q289 537 283 517L295 516L327 518Q354 521 371 521Q433 521 433 491Q433 463 378 463H374L280 464V433L310 435Q327 437 353 437Q431 437 431 400Q431 390 422 382T401 374H349L359 379H278Q278 346 271 225Q263 133
263 69V58V46Q263 21 256 9T229 -4Q217 -4 208 2Z" />
<glyph unicode="&#xa6;" glyph-name="brokenbar" horiz-adv-x="174" d="M63 403T63 498L61 618Q59 671 59 737Q59 773 93 773Q115 773 115 680V649L114 627L113 428Q113 418 105 411T87 403Q63 403 63 498ZM80 -39T73 -32T65 -14L63 166L64 314Q64 324 70 331T84
339Q114 339 114 303L115 -8Q115 -39 90 -39Q80 -39 73 -32Z" />
<glyph unicode="&#xa7;" glyph-name="section" horiz-adv-x="264" d="M99 0T84 11T68 40Q68 49 75 54T92 59Q103 59 113 53Q133 54 146 77T159 125Q159 147 151 169T128 211Q101 245 70 292Q56 313 48 341T39 400Q39 429 50 455T83 497Q55 554 55 623Q55 705 137
705Q154 705 170 698T186 680Q186 668 176 664T146 660Q116 660 104 649Q95 642 95 624Q95 573 126 526Q157 479 184 433Q198 409 206 377T215 310Q215 284 204 262T171 227Q208 168 208 120Q208 91 198 65T167 20Q145 0 117 0Q99 0 84 11ZM166 289T166 317Q166
327 161 354L155 372Q150 381 148 388Q145 395 140 404T130 420Q128 422 126 426T119 437L109 452Q88 425 88 388Q88 368 96 345T116 306Q117 305 142 268Q166 289 166 317Z" />
<glyph unicode="&#xa8;" glyph-name="dieresis" horiz-adv-x="352" d="M73 670T63 681T52 706Q52 721 63 732T90 744Q104 744 114 733T125 707Q125 691 114 681T86 670Q73 670 63 681ZM234 665T224 676T213 701Q213 716 224 727T251 739Q265 739 276 728T287 702Q287
686 276 676T247 665Q234 665 224 676Z" />
<glyph unicode="&#xa9;" glyph-name="copyright" horiz-adv-x="633" d="M219 -10T171 21T103 106T76 245Q73 296 72 315Q71 318 71 322Q65 426 65 451Q65 524 75 598Q88 692 116 757Q134 798 156 824T209 868Q241 885 281 885Q326 885 365 866T435 813Q462 780
484 736T521 644Q548 556 557 452Q560 409 560 370Q560 287 547 219Q532 140 496 85Q475 55 449 35T387 2Q350 -10 305 -10Q219 -10 171 21ZM383 40T431 91Q454 117 469 149T494 227Q493 229 493 236Q493 244 499 262Q504 282 504 288V437Q504 464 493 513L485
547Q472 613 459 653T420 735Q391 781 350 810Q345 813 336 819T314 832Q305 836 292 836Q257 836 229 817T182 762Q144 690 133 604Q123 528 123 459Q123 417 129 343Q130 325 131 313T132 291Q137 212 145 167T177 89T249 44Q266 40 292 40Q383 40 431 91ZM309
110T295 114T259 129Q245 136 230 142Q202 196 190 229T173 297T169 397V403Q169 447 171 484Q173 528 182 581Q190 627 211 668Q221 689 234 702T267 724Q286 732 308 732Q332 732 360 715T406 673T425 623Q425 612 418 605T401 597Q388 597 378 605T361 625Q356
633 354 639T349 649Q333 677 312 677Q295 677 281 664T259 630Q252 611 246 583T238 532Q236 517 234 484L231 450L233 445H232Q228 429 228 395V370Q228 319 236 271Q242 237 251 216T277 178Q296 162 319 162Q334 162 348 169T370 188Q377 199 387 207T408 215Q420
215 427 205T435 182Q435 163 416 146T369 119Q344 110 324 110Q309 110 295 114Z" />
<glyph unicode="&#xaa;" glyph-name="ordfeminine" horiz-adv-x="299" d="M211 371T197 375T182 389Q182 408 176 440L174 452L119 460Q117 451 114 436T110 415Q108 408 106 396T99 378Q94 373 88 373Q51 373 51 388L52 391V393L69 456Q92 543 105 597T118 674L119
697Q122 738 129 749H158Q176 749 183 746T191 734Q191 723 197 659L203 609Q205 589 213 536Q219 496 219 489Q219 483 222 472Q225 460 225 455Q225 451 230 421Q235 400 235 387Q235 374 226 371Q211 371 197 375ZM169 492T169 508Q169 547 160 626L154 684Q146
645 142 617Q123 513 121 496Q130 490 170 487Q169 492 169 508Z" />
<glyph unicode="&#xab;" glyph-name="guillemotleft" horiz-adv-x="447" d="M241 -29T191 54Q141 140 97 230T53 340Q53 353 80 420L90 445Q122 525 141 570Q177 653 180 665Q181 677 190 695T210 724V725L214 726L219 727Q232 727 241 721T250 703Q224 642 183
525Q135 396 107 335Q112 311 138 259T200 149Q225 108 256 52Q281 6 281 -6Q281 -17 272 -23T250 -29Q241 -29 191 54ZM366 -11T358 -9Q342 -3 182 341Q184 369 234 479Q283 584 292 613L295 629Q303 658 312 679Q324 707 340 707H341L343 706L365 689Q361 656
342 605T297 506Q239 390 239 343Q239 336 305 203T391 34L404 24Q402 9 396 -1T377 -11Q366 -11 358 -9Z" />
<glyph unicode="&#xac;" glyph-name="logicalnot" horiz-adv-x="536" d="M395 232T395 289Q395 300 396 307V322Q396 337 394 355Q384 355 376 356L356 358Q321 358 219 353Q127 347 83 347Q73 347 66 354T58 373Q58 408 164 408Q176 408 218 406L253 404Q275
404 335 409Q381 414 417 414Q429 414 439 406T450 386Q450 366 440 352Q440 300 452 262Q450 250 443 241T426 232Q395 232 395 289Z" />
<glyph unicode="&#xad;" glyph-name="uni00AD" horiz-adv-x="283" d="M80 335T74 340T67 354Q67 362 83 368Q108 378 162 380Q173 381 189 381Q198 381 204 376T211 362Q211 354 195 348Q170 338 117 336Q105 335 89 335Q80 335 74 340Z" />
<glyph unicode="&#xae;" glyph-name="registered" horiz-adv-x="592" d="M227 -93T173 -57Q127 -28 95 36Q83 61 73 95T57 163Q47 221 45 302Q44 322 44 370V448Q44 530 49 584Q55 663 72 731Q91 804 128 857Q148 886 172 904T230 935Q265 946 303 946Q344 946
384 922T454 857Q474 845 492 784T519 640Q538 475 538 394V344Q538 302 536 267Q534 226 531 199T518 124Q510 85 499 58T469 -2Q451 -32 429 -50T374 -81Q343 -93 305 -93Q227 -93 173 -57ZM331 -41T379 -9Q416 17 442 71Q461 111 473 178Q480 223 482 292V345Q482
366 483 384V423Q483 556 470 645T421 808Q408 834 371 864T310 895Q103 895 103 466Q103 87 171 13Q186 -1 203 -12L231 -31L260 -37L270 -41Q331 -41 379 -9ZM223 70T212 79T201 102Q201 108 202 113V125Q202 181 197 229Q197 233 190 275Q185 315 185 330V525Q185
556 179 617Q172 674 172 710Q172 759 197 778T278 798Q306 798 328 788T362 759Q373 743 381 719T391 670Q393 655 393 620Q393 588 387 562T370 521Q355 500 333 484Q325 476 324 473Q325 441 413 153H417Q417 142 424 125Q431 108 431 97Q431 88 422 79T403
70Q382 70 361 122Q344 160 332 204T303 322L293 365Q278 433 271 446L245 435L242 389Q242 345 253 246Q264 158 264 103Q264 88 257 79T237 70Q223 70 212 79ZM333 526T333 621V625Q333 651 332 673Q330 698 317 722Q306 745 281 745Q252 745 240 731T228 687L230
653L232 617Q232 535 243 488Q333 526 333 621Z" />
<glyph unicode="&#xaf;" glyph-name="overscore" horiz-adv-x="439" d="M76 694T76 726Q76 736 82 742T99 748H246L276 750Q290 751 307 751Q355 751 355 722Q355 711 348 705T327 699Q293 699 222 696L116 694Q76 694 76 726Z" />
<glyph unicode="&#xb0;" glyph-name="degree" horiz-adv-x="431" d="M166 487T142 501T106 539Q85 581 85 630Q85 681 116 714T198 747Q230 747 256 740T299 719Q314 708 324 692T338 660Q342 647 342 631Q342 597 326 563Q315 541 300 526T260 499Q233 487 199
487Q166 487 142 501ZM227 525T247 533T279 553Q289 565 296 579T306 607Q309 619 309 629Q309 656 288 683Q278 696 255 705Q231 713 203 713Q175 713 155 696T129 652Q123 628 123 598Q123 583 134 566T164 537T203 525Q227 525 247 533Z" />
<glyph unicode="&#xb1;" glyph-name="plusminus" horiz-adv-x="439" d="M201 163T192 170T182 188Q182 215 183 237L185 285L176 292L150 291Q131 288 120 288Q77 288 77 320Q77 330 83 338T100 346L129 344L159 342Q168 342 182 344L179 379Q176 405 176 417Q176
473 208 473Q220 473 228 464T237 444V441L233 432L234 407Q234 391 236 373Q240 353 242 346Q246 342 247 342L272 344Q285 346 305 346Q356 346 356 316Q356 304 348 297T328 289Q319 289 299 292L270 294Q237 294 237 270Q237 260 242 230Q247 208 247 190Q247
178 237 171T214 163Q201 163 192 170ZM77 66T77 98Q77 108 83 114T100 120H247L278 122L309 124Q356 124 356 94Q356 83 349 77T328 71Q294 71 223 68L117 66Q77 66 77 98Z" />
<glyph unicode="&#xb2;" glyph-name="uni00B2" horiz-adv-x="264" d="M55 331T46 335T37 347V350Q47 361 59 394L67 416Q100 489 114 547T129 670Q129 704 121 722T99 741Q91 737 87 715Q85 707 79 701T66 694Q59 694 52 700T45 715Q45 728 51 740T69 755Q79 758
92 761T110 765Q126 765 142 757Q156 747 162 735Q165 730 167 720T170 707L172 675V660Q172 621 165 577T145 500L116 424Q113 417 101 393Q99 390 96 384T91 372Q128 377 167 377Q179 368 178 352Q175 339 171 335Q137 335 119 333Q100 331 76 331Q55 331 46
335Z" />
<glyph unicode="&#xb3;" glyph-name="uni00B3" horiz-adv-x="270" d="M89 336T70 347T51 376Q51 382 61 388T75 391Q79 387 83 381T90 371T103 368Q119 368 128 388T137 440Q137 486 132 507T103 557H97Q80 557 80 568Q80 576 94 593Q104 608 110 618T116 639Q116
668 108 705T84 743Q77 743 74 737T67 717Q64 704 61 698T50 691Q36 691 31 697T24 713Q33 733 51 750T87 768Q133 768 148 729T163 646Q163 635 160 628T152 614T146 605L138 593Q163 578 173 531T184 439Q184 413 173 389T143 351T107 336Q89 336 70 347Z" />
<glyph unicode="&#xb4;" glyph-name="acute" horiz-adv-x="343" d="M112 641T107 644T102 654Q102 659 107 664L123 678Q128 683 179 727L238 778Q242 780 247 780Q259 780 269 768T279 743Q279 731 272 727Q236 699 126 643Q124 641 118 641Q112 641 107 644Z" />
<glyph unicode="&#xb5;" glyph-name="uni00B5" horiz-adv-x="361" d="M307 647T307 630Q307 614 304 579Q300 550 300 529Q300 506 298 488L296 446V438Q297 434 297 429Q297 -15 168 -15Q127 -15 103 14V-123Q103 -133 96 -140T77 -147Q52 -147 52 -53Q52 61
49 289Q45 490 45 629Q45 665 80 665Q89 665 95 657T101 640Q101 483 102 358V295Q103 267 108 224Q115 142 115 118Q115 44 178 44Q250 44 250 582V638V647Q249 650 249 655Q249 667 254 672T276 678Q289 678 296 671T306 653Q307 647 307 630Z" />
<glyph unicode="&#xb6;" glyph-name="paragraph" horiz-adv-x="478" d="M317 -10T317 50Q317 118 322 313Q327 506 327 575Q327 619 323 684L321 720L319 792L320 808Q321 815 321 825Q321 864 291 864Q286 864 286 825Q286 786 293 651Q299 537 299 479Q299 404
290 255Q281 107 281 31Q281 13 275 5T252 -4Q239 -4 231 5T222 27Q222 109 232 249Q243 403 243 471L242 506L241 536Q184 536 134 546Q103 553 82 564T43 596Q25 617 19 645Q19 645 17 659Q12 675 12 676Q12 766 40 811Q55 836 73 852T120 878Q149 889 179 895T254
905Q264 916 284 916Q294 916 307 912L323 908V907L350 911L354 905Q366 905 391 898Q401 895 408 889T415 874Q415 864 407 857T387 849H381H375Q375 793 379 706Q382 609 382 558Q382 487 379 344Q376 202 376 129Q376 112 379 74Q382 37 382 18Q382 6 374 -2T354
-10Q317 -10 317 50ZM240 585L242 586Q242 616 237 708Q232 774 232 829L233 850Q215 854 193 854Q160 854 131 833T85 779T67 710Q67 679 75 655T98 617Q111 604 133 596T180 586Q210 584 234 584L240 585Z" />
<glyph unicode="&#xb7;" glyph-name="middot" horiz-adv-x="289" d="M124 309T114 320T104 345Q104 360 115 371T141 383Q155 383 166 372T177 346Q177 330 166 320T137 309Q124 309 114 320Z" />
<glyph unicode="&#xb8;" glyph-name="cedilla" horiz-adv-x="378" d="M139 -219T126 -212T112 -192Q112 -182 123 -182Q127 -182 139 -187Q151 -192 155 -192Q172 -192 183 -172T194 -123Q194 -90 179 -78L166 -80L152 -82Q137 -82 125 -62Q133 -41 133 -4V7L162
11Q158 -19 158 -40Q231 -44 231 -140Q231 -156 221 -174T192 -206T155 -219Q139 -219 126 -212Z" />
<glyph unicode="&#xb9;" glyph-name="uni00B9" horiz-adv-x="238" d="M62 337T62 358Q62 366 66 374T78 383Q90 383 90 392Q90 426 84 502Q84 511 82 535Q77 598 77 596Q73 664 73 675L74 685V689Q74 706 70 714T55 722L49 721H42Q26 721 26 744Q26 752 38 759T71
767Q85 767 100 765T118 758Q115 743 115 734Q115 712 120 684Q124 638 124 632Q124 575 129 501Q135 414 135 389V385Q141 387 149 387H156V387Q170 387 174 383T179 359Q179 351 163 345T116 338H87L79 337Q62 337 62 358Z" />
<glyph unicode="&#xba;" glyph-name="ordmasculine" horiz-adv-x="292" d="M123 376T102 386T74 410Q60 439 54 484Q49 520 49 557V568V578V581V590V629Q50 659 54 686Q56 708 66 738Q70 748 85 754T110 761Q134 761 161 753T199 730Q224 700 229 652Q232 630
232 603V599Q232 582 233 568V536Q233 454 212 415T140 376Q123 376 102 386ZM148 419T156 427T169 449L182 490Q184 509 184 540Q184 562 181 605Q179 627 179 639T177 657V664Q176 685 163 700T131 716Q112 716 106 695Q99 670 101 666Q102 661 102 656T101 647V632Q101
618 100 607Q99 595 99 581Q99 551 101 522Q102 503 104 490T111 460Q121 419 138 419Q148 419 156 427Z" />
<glyph unicode="&#xbb;" glyph-name="guillemotright" horiz-adv-x="456" d="M187 -27T178 -21T168 -5Q168 8 193 54Q224 109 249 150Q283 207 310 259T343 336Q310 407 277 521Q263 567 242 616T198 700Q200 712 208 720T230 728Q233 728 235 727L237 726H239V725Q250
714 259 697T270 666Q275 650 309 571Q332 516 370 421Q396 355 396 342Q396 322 353 232T259 56Q210 -27 200 -27Q187 -27 178 -21ZM59 -11T52 -1T45 24L57 34Q82 81 145 208T208 343Q208 395 165 479Q146 515 127 553T97 625Q83 662 83 689L105 706L110 705Q129
697 139 675Q147 657 152 633Q156 615 157 613Q161 595 214 479Q266 367 266 341L92 -9H90L81 -10L71 -11Q59 -11 52 -1Z" />
<glyph unicode="&#xbc;" glyph-name="onequarter" horiz-adv-x="653" d="M62 337T62 358Q62 366 66 374T78 383Q90 383 90 392Q90 426 84 502Q84 511 82 535Q77 598 77 596Q73 664 73 675L74 685V689Q74 706 70 714T55 722L49 721H42Q26 721 26 744Q26 752 38
759T71 767Q85 767 100 765T118 758Q115 743 115 734Q115 712 120 684Q124 638 124 632Q124 575 129 501Q135 414 135 389V385Q141 387 149 387H156V387Q170 387 174 383T179 359Q179 351 163 345T116 338H87L79 337Q62 337 62 358ZM197 -2T197 15Q197 75 225 197T304
497Q350 666 358 709L362 729Q366 745 370 749Q377 758 386 758Q397 758 405 751T413 734Q413 720 410 704T400 669Q393 647 392 640Q316 309 279 143Q279 141 274 116Q263 61 255 33Q248 10 239 -2T220 -15H216Q197 -2 197 15ZM558 -19T544 -10T530 8V10Q533 21
533 30L531 57Q529 69 529 83Q529 84 529 88T529 96V108Q529 120 528 125Q491 125 484 124L468 122Q450 122 442 124T427 131Q427 158 430 167Q427 179 427 198Q427 205 428 216T432 241Q436 291 436 297V399Q436 408 439 409L458 410Q465 410 473 406T482 396L481
375Q480 366 480 354V349L479 343L480 333V332Q482 322 482 302Q482 279 479 231Q475 190 475 175V163Q484 163 502 164T525 166Q525 195 527 229Q530 283 530 307Q530 312 543 315T564 319L573 309V283Q573 226 571 168L578 169H587H594Q600 169 602 166T604 149Q604
141 598 135T582 129Q573 129 573 125Q573 101 574 70T579 34Q578 29 578 23Q578 15 580 12V2Q580 -6 577 -12T567 -19Q558 -19 544 -10Z" />
<glyph unicode="&#xbd;" glyph-name="onehalf" horiz-adv-x="661" d="M62 337T62 358Q62 366 66 374T78 383Q90 383 90 392Q90 426 84 502Q84 511 82 535Q77 598 77 596Q73 664 73 675L74 685V689Q74 706 70 714T55 722L49 721H42Q26 721 26 744Q26 752 38 759T71
767Q85 767 100 765T118 758Q115 743 115 734Q115 712 120 684Q124 638 124 632Q124 575 129 501Q135 414 135 389V385Q141 387 149 387H156V387Q170 387 174 383T179 359Q179 351 163 345T116 338H87L79 337Q62 337 62 358ZM465 -2T456 2T447 14V17Q457 28 469
61L477 83Q510 156 524 214T539 337Q539 371 531 389T509 408Q501 404 497 382Q495 374 489 368T476 361Q469 361 462 367T455 382Q455 395 461 407T479 422Q489 425 502 428T520 432Q536 432 552 424Q566 414 572 402Q575 397 577 387T580 374L582 342V327Q582
288 575 244T555 167L526 91Q523 84 511 60Q509 57 506 51T501 39Q538 44 577 44Q589 35 588 19Q585 6 581 2Q547 2 529 0Q510 -2 486 -2Q465 -2 456 2ZM204 -2T204 15Q204 75 232 197T311 497Q357 666 365 709L369 729Q373 745 377 749Q384 758 393 758Q404 758
412 751T420 734Q420 720 417 704T407 669Q400 647 399 640Q323 309 286 143Q286 141 281 116Q270 61 262 33Q255 10 246 -2T227 -15H223Q204 -2 204 15Z" />
<glyph unicode="&#xbe;" glyph-name="threequarters" horiz-adv-x="653" d="M89 336T70 347T51 376Q51 382 61 388T75 391Q79 387 83 381T90 371T103 368Q119 368 128 388T137 440Q137 486 132 507T103 557H97Q80 557 80 568Q80 576 94 593Q104 608 110 618T116
639Q116 668 108 705T84 743Q77 743 74 737T67 717Q64 704 61 698T50 691Q36 691 31 697T24 713Q33 733 51 750T87 768Q133 768 148 729T163 646Q163 635 160 628T152 614T146 605L138 593Q163 578 173 531T184 439Q184 413 173 389T143 351T107 336Q89 336 70
347ZM182 -2T182 15Q182 75 210 197T289 497Q335 666 343 709L347 729Q351 745 355 749Q362 758 371 758Q382 758 390 751T398 734Q398 720 395 704T385 669Q378 647 377 640Q301 309 264 143Q264 141 259 116Q248 61 240 33Q233 10 224 -2T205 -15H201Q182 -2
182 15ZM558 -19T544 -10T530 8V10Q533 21 533 30L531 57Q529 69 529 83Q529 84 529 88T529 96V108Q529 120 528 125Q491 125 484 124L468 122Q450 122 442 124T427 131Q427 158 430 167Q427 179 427 198Q427 205 428 216T432 241Q436 291 436 297V399Q436 408
439 409L458 410Q465 410 473 406T482 396L481 375Q480 366 480 354V349L479 343L480 333V332Q482 322 482 302Q482 279 479 231Q475 190 475 175V163Q484 163 502 164T525 166Q525 195 527 229Q530 283 530 307Q530 312 543 315T564 319L573 309V283Q573 226 571
168L578 169H587H594Q600 169 602 166T604 149Q604 141 598 135T582 129Q573 129 573 125Q573 101 574 70T579 34Q578 29 578 23Q578 15 580 12V2Q580 -6 577 -12T567 -19Q558 -19 544 -10Z" />
<glyph unicode="&#xbf;" glyph-name="questiondown" horiz-adv-x="266" d="M128 600T116 613T104 638Q104 676 144 676Q158 676 169 665Q179 654 179 639Q179 625 167 613T140 600Q128 600 116 613ZM123 -83T107 -75T80 -52Q64 -30 60 19Q59 30 59 57Q59 147 89
249Q102 292 111 358T120 494Q120 548 119 561Q138 561 140 562Q141 563 144 563Q164 563 168 541Q168 480 159 408T131 233L126 204Q112 117 112 58Q112 -34 142 -34Q161 -34 161 10Q161 22 154 64Q154 65 159 70Q174 85 184 85Q212 85 212 18V9Q212 -17 207 -36T186
-68Q170 -83 144 -83Q123 -83 107 -75Z" />
<glyph unicode="&#xc0;" glyph-name="Agrave" horiz-adv-x="350" d="M242 0T235 6T227 26V157Q214 166 178 173T110 182Q99 161 94 131L90 111Q89 104 84 80T73 39T61 11Q23 11 17 31Q28 47 42 125L75 308Q97 438 115 530T155 684Q178 753 199 753Q220 753 231
745Q231 705 250 552Q270 402 270 347Q270 294 281 195Q291 94 291 34Q291 0 258 0Q242 0 235 6ZM214 215T226 218Q223 262 216 327Q193 553 193 604V612Q183 602 166 522T133 349T117 227Q159 215 206 215Q214 215 226 218ZM483 779T437 792T350 821T310 842Q310
854 321 867T343 881Q349 881 390 860T466 817T501 786Q501 779 494 779Q483 779 437 792Z" />
<glyph unicode="&#xc1;" glyph-name="Aacute" horiz-adv-x="350" d="M242 0T235 6T227 26V157Q214 166 178 173T110 182Q99 161 94 131L90 111Q89 104 84 80T73 39T61 11Q23 11 17 31Q28 47 42 125L75 308Q97 438 115 530T155 684Q178 753 199 753Q220 753 231
745Q231 705 250 552Q270 402 270 347Q270 294 281 195Q291 94 291 34Q291 0 258 0Q242 0 235 6ZM214 215T226 218Q223 262 216 327Q193 553 193 604V612Q183 602 166 522T133 349T117 227Q159 215 206 215Q214 215 226 218ZM175 775T170 778T165 788Q165 793 170
798L186 812Q191 817 242 861L301 912Q305 914 310 914Q322 914 332 902T342 877Q342 865 335 861Q299 833 189 777Q187 775 181 775Q175 775 170 778Z" />
<glyph unicode="&#xc2;" glyph-name="Acircumflex" horiz-adv-x="350" d="M242 0T235 6T227 26V157Q214 166 178 173T110 182Q99 161 94 131L90 111Q89 104 84 80T73 39T61 11Q23 11 17 31Q28 47 42 125L75 308Q97 438 115 530T155 684Q178 753 199 753Q220 753
231 745Q231 705 250 552Q270 402 270 347Q270 294 281 195Q291 94 291 34Q291 0 258 0Q242 0 235 6ZM214 215T226 218Q223 262 216 327Q193 553 193 604V612Q183 602 166 522T133 349T117 227Q159 215 206 215Q214 215 226 218ZM267 774T265 781L226 916L175 788Q172
781 161 781Q151 781 144 786T136 801Q136 807 138 810L173 898Q177 906 185 925T197 951Q208 969 220 975Q228 977 234 977Q242 977 248 968Q262 946 273 900L286 852Q295 816 299 804Q300 801 300 795Q300 786 293 780T277 774Q267 774 265 781Z" />
<glyph unicode="&#xc3;" glyph-name="Atilde" horiz-adv-x="350" d="M242 0T235 6T227 26V157Q214 166 178 173T110 182Q99 161 94 131L90 111Q89 104 84 80T73 39T61 11Q23 11 17 31Q28 47 42 125L75 308Q97 438 115 530T155 684Q178 753 199 753Q220 753 231
745Q231 705 250 552Q270 402 270 347Q270 294 281 195Q291 94 291 34Q291 0 258 0Q242 0 235 6ZM214 215T226 218Q223 262 216 327Q193 553 193 604V612Q183 602 166 522T133 349T117 227Q159 215 206 215Q214 215 226 218ZM477 778T459 784T434 800Q427 809 417
815T395 821Q388 818 385 813T384 802V800Q384 787 369 782Q353 782 343 789T333 811Q333 836 353 852T406 869Q417 869 449 849Q481 829 490 829Q499 829 504 835T511 849Q513 857 518 863T533 869Q549 869 557 862T566 843Q566 817 547 798T502 778Q477 778 459
784Z" />
<glyph unicode="&#xc4;" glyph-name="Adieresis" horiz-adv-x="350" d="M242 0T235 6T227 26V157Q214 166 178 173T110 182Q99 161 94 131L90 111Q89 104 84 80T73 39T61 11Q23 11 17 31Q28 47 42 125L75 308Q97 438 115 530T155 684Q178 753 199 753Q220 753
231 745Q231 705 250 552Q270 402 270 347Q270 294 281 195Q291 94 291 34Q291 0 258 0Q242 0 235 6ZM214 215T226 218Q223 262 216 327Q193 553 193 604V612Q183 602 166 522T133 349T117 227Q159 215 206 215Q214 215 226 218ZM122 784T112 795T101 820Q101 835
112 846T139 858Q153 858 163 847T174 821Q174 805 163 795T135 784Q122 784 112 795ZM283 779T273 790T262 815Q262 830 273 841T300 853Q314 853 325 842T336 816Q336 800 325 790T296 779Q283 779 273 790Z" />
<glyph unicode="&#xc5;" glyph-name="Aring" horiz-adv-x="350" d="M242 0T235 6T227 26V157Q214 166 178 173T110 182Q99 161 94 131L90 111Q89 104 84 80T73 39T61 11Q23 11 17 31Q28 47 42 125L75 308Q97 438 115 530T155 684Q178 753 199 753Q220 753 231
745Q231 705 250 552Q270 402 270 347Q270 294 281 195Q291 94 291 34Q291 0 258 0Q242 0 235 6ZM214 215T226 218Q223 262 216 327Q193 553 193 604V612Q183 602 166 522T133 349T117 227Q159 215 206 215Q214 215 226 218ZM427 758T411 767T386 793Q370 825 370
858Q370 893 392 916T450 939Q496 939 520 920Q541 903 548 878Q550 864 550 858Q550 834 539 811Q525 779 492 765Q475 758 450 758Q427 758 411 767ZM471 796T484 802T504 820Q514 836 514 856Q514 875 499 889T455 903Q432 903 421 885T409 838Q409 824 423
810T454 796Q471 796 484 802Z" />
<glyph unicode="&#xc6;" glyph-name="AE" horiz-adv-x="491" d="M250 1H251Q259 94 259 124L257 216Q254 279 254 309Q243 309 233 308Q213 307 190 304Q187 303 180 302T168 298L119 110Q116 102 114 84Q110 64 105 46T93 15Q83 0 72 0Q65 0 59 7T53 23Q53 74
80 182Q107 287 140 400L169 496Q194 577 202 603Q219 657 225 674Q226 678 228 687T233 703Q236 709 238 717Q243 728 246 731Q248 734 250 737T255 743Q265 754 281 754L320 756Q345 759 358 759Q401 759 401 731V729L391 708Q334 708 296 703Q296 678 300 639Q303
594 303 569L301 459Q300 411 300 350Q307 350 334 355Q366 359 372 359H377L397 335Q397 303 342 303H338L299 304L301 177Q302 118 302 40Q317 40 357 45Q388 50 413 50Q426 50 436 44T446 26Q446 -6 327 -6H312Q302 -6 291 -13Q278 -21 272 -21L250 1ZM225 339T252
345L253 378Q253 391 255 445Q256 496 256 563Q256 612 255 626Q200 438 178 336Q225 339 252 345Z" />
<glyph unicode="&#xc7;" glyph-name="Ccedilla" horiz-adv-x="337" d="M170 -16T147 -3T106 32Q91 53 79 85T61 153Q49 212 45 308Q44 331 44 387V450Q45 477 45 506Q45 565 52 599Q49 614 49 630Q49 690 94 727T208 764Q234 764 256 750T278 715Q278 705 270
699T250 693Q240 693 229 696T214 705H201V707Q164 707 139 691Q121 678 111 648Q107 637 105 620T103 589Q102 581 102 557L104 522L105 488Q105 473 101 453Q96 428 96 418V394Q96 355 99 287Q100 230 112 173Q121 120 146 83Q170 45 211 45Q228 45 253 63Q280
81 291 81Q305 81 320 66Q320 29 292 9Q266 -9 230 -14Q210 -16 198 -16Q170 -16 147 -3ZM161 -219T148 -212T134 -192Q134 -182 145 -182Q149 -182 161 -187Q173 -192 177 -192Q194 -192 205 -172T216 -123Q216 -90 201 -78L188 -80L174 -82Q159 -82 147 -62Q155
-41 155 -4V7L184 11Q180 -19 180 -40Q253 -44 253 -140Q253 -156 243 -174T214 -206T177 -219Q161 -219 148 -212Z" />
<glyph unicode="&#xc8;" glyph-name="Egrave" horiz-adv-x="278" d="M98 -6T84 -1Q67 4 67 27V608Q67 625 61 659Q54 690 54 710V713Q71 741 79 749Q93 749 116 753Q137 757 153 757Q169 757 184 748T199 725Q199 695 153 695H139Q133 696 125 696Q116 696 114
695Q114 661 118 613L120 585L122 530Q122 511 119 472L117 416L131 419Q151 425 164 425Q175 425 184 417T193 397Q193 385 186 376T167 366L155 367H142Q127 367 121 360V51L177 54Q234 54 234 28V24Q228 12 212 5T181 -5L148 -6H117Q98 -6 84 -1ZM153 793T107
806T20 835T-20 856Q-20 868 -9 881T13 895Q19 895 60 874T136 831T171 800Q171 793 164 793Q153 793 107 806Z" />
<glyph unicode="&#xc9;" glyph-name="Eacute" horiz-adv-x="278" d="M98 -6T84 -1Q67 4 67 27V608Q67 625 61 659Q54 690 54 710V713Q71 741 79 749Q93 749 116 753Q137 757 153 757Q169 757 184 748T199 725Q199 695 153 695H139Q133 696 125 696Q116 696 114
695Q114 661 118 613L120 585L122 530Q122 511 119 472L117 416L131 419Q151 425 164 425Q175 425 184 417T193 397Q193 385 186 376T167 366L155 367H142Q127 367 121 360V51L177 54Q234 54 234 28V24Q228 12 212 5T181 -5L148 -6H117Q98 -6 84 -1ZM101 789T96
792T91 802Q91 807 96 812L112 826Q117 831 168 875L227 926Q231 928 236 928Q248 928 258 916T268 891Q268 879 261 875Q225 847 115 791Q113 789 107 789Q101 789 96 792Z" />
<glyph unicode="&#xca;" glyph-name="Ecircumflex" horiz-adv-x="278" d="M98 -6T84 -1Q67 4 67 27V608Q67 625 61 659Q54 690 54 710V713Q71 741 79 749Q93 749 116 753Q137 757 153 757Q169 757 184 748T199 725Q199 695 153 695H139Q133 696 125 696Q116 696
114 695Q114 661 118 613L120 585L122 530Q122 511 119 472L117 416L131 419Q151 425 164 425Q175 425 184 417T193 397Q193 385 186 376T167 366L155 367H142Q127 367 121 360V51L177 54Q234 54 234 28V24Q228 12 212 5T181 -5L148 -6H117Q98 -6 84 -1ZM193 788T191
795L152 930L101 802Q98 795 87 795Q77 795 70 800T62 815Q62 821 64 824L99 912Q103 920 111 939T123 965Q134 983 146 989Q154 991 160 991Q168 991 174 982Q188 960 199 914L212 866Q221 830 225 818Q226 815 226 809Q226 800 219 794T203 788Q193 788 191 795Z"
/>
<glyph unicode="&#xcb;" glyph-name="Edieresis" horiz-adv-x="278" d="M98 -6T84 -1Q67 4 67 27V608Q67 625 61 659Q54 690 54 710V713Q71 741 79 749Q93 749 116 753Q137 757 153 757Q169 757 184 748T199 725Q199 695 153 695H139Q133 696 125 696Q116 696
114 695Q114 661 118 613L120 585L122 530Q122 511 119 472L117 416L131 419Q151 425 164 425Q175 425 184 417T193 397Q193 385 186 376T167 366L155 367H142Q127 367 121 360V51L177 54Q234 54 234 28V24Q228 12 212 5T181 -5L148 -6H117Q98 -6 84 -1ZM48 798T38
809T27 834Q27 849 38 860T65 872Q79 872 89 861T100 835Q100 819 89 809T61 798Q48 798 38 809ZM209 793T199 804T188 829Q188 844 199 855T226 867Q240 867 251 856T262 830Q262 814 251 804T222 793Q209 793 199 804Z" />
<glyph unicode="&#xcc;" glyph-name="Igrave" horiz-adv-x="257" d="M37 1T37 31Q37 55 67 55H79Q83 54 88 54Q96 54 99 59T103 77Q103 162 93 309Q84 462 84 540Q84 568 85 591L86 642Q86 675 83 697Q72 693 60 693Q37 693 37 717Q37 729 51 738T89 751Q131 758
160 758Q172 758 180 750T189 731Q189 720 183 712T166 704Q160 704 156 705H148Q138 705 134 701T129 684Q129 578 142 392Q154 197 154 99V61Q161 62 174 62Q216 62 216 27V21L191 4Q190 4 185 4T165 3Q131 1 123 1Q37 1 37 31ZM128 789T82 802T-5 831T-45 852Q-45
864 -34 877T-12 891Q-6 891 35 870T111 827T146 796Q146 789 139 789Q128 789 82 802Z" />
<glyph unicode="&#xcd;" glyph-name="Iacute" horiz-adv-x="257" d="M37 1T37 31Q37 55 67 55H79Q83 54 88 54Q96 54 99 59T103 77Q103 162 93 309Q84 462 84 540Q84 568 85 591L86 642Q86 675 83 697Q72 693 60 693Q37 693 37 717Q37 729 51 738T89 751Q131 758
160 758Q172 758 180 750T189 731Q189 720 183 712T166 704Q160 704 156 705H148Q138 705 134 701T129 684Q129 578 142 392Q154 197 154 99V61Q161 62 174 62Q216 62 216 27V21L191 4Q190 4 185 4T165 3Q131 1 123 1Q37 1 37 31ZM76 785T71 788T66 798Q66 803
71 808L87 822Q92 827 143 871L202 922Q206 924 211 924Q223 924 233 912T243 887Q243 875 236 871Q200 843 90 787Q88 785 82 785Q76 785 71 788Z" />
<glyph unicode="&#xce;" glyph-name="Icircumflex" horiz-adv-x="257" d="M37 1T37 31Q37 55 67 55H79Q83 54 88 54Q96 54 99 59T103 77Q103 162 93 309Q84 462 84 540Q84 568 85 591L86 642Q86 675 83 697Q72 693 60 693Q37 693 37 717Q37 729 51 738T89 751Q131
758 160 758Q172 758 180 750T189 731Q189 720 183 712T166 704Q160 704 156 705H148Q138 705 134 701T129 684Q129 578 142 392Q154 197 154 99V61Q161 62 174 62Q216 62 216 27V21L191 4Q190 4 185 4T165 3Q131 1 123 1Q37 1 37 31ZM424 784T422 791L383 926L332
798Q329 791 318 791Q308 791 301 796T293 811Q293 817 295 820L330 908Q334 916 342 935T354 961Q365 979 377 985Q385 987 391 987Q399 987 405 978Q419 956 430 910L443 862Q452 826 456 814Q457 811 457 805Q457 796 450 790T434 784Q424 784 422 791Z" />
<glyph unicode="&#xcf;" glyph-name="Idieresis" horiz-adv-x="257" d="M37 1T37 31Q37 55 67 55H79Q83 54 88 54Q96 54 99 59T103 77Q103 162 93 309Q84 462 84 540Q84 568 85 591L86 642Q86 675 83 697Q72 693 60 693Q37 693 37 717Q37 729 51 738T89 751Q131
758 160 758Q172 758 180 750T189 731Q189 720 183 712T166 704Q160 704 156 705H148Q138 705 134 701T129 684Q129 578 142 392Q154 197 154 99V61Q161 62 174 62Q216 62 216 27V21L191 4Q190 4 185 4T165 3Q131 1 123 1Q37 1 37 31ZM279 794T269 805T258 830Q258
845 269 856T296 868Q310 868 320 857T331 831Q331 815 320 805T292 794Q279 794 269 805ZM440 789T430 800T419 825Q419 840 430 851T457 863Q471 863 482 852T493 826Q493 810 482 800T453 789Q440 789 430 800Z" />
<glyph unicode="&#xd0;" glyph-name="Eth" horiz-adv-x="421" d="M336 488T336 456V424V377Q334 373 334 369Q334 361 335 357Q336 353 336 347Q336 315 327 271T299 180Q254 70 198 24Q165 -2 129 -2Q109 -2 95 7T80 32Q102 54 102 149Q102 206 93 315Q91 331
89 363L76 362Q42 360 34 360Q21 360 11 368T1 389Q1 401 25 410Q45 418 85 423Q83 467 83 479L85 534Q86 558 86 589Q86 617 76 660Q64 705 64 723Q64 758 141 758H156Q184 758 208 749T250 725Q282 697 304 644Q319 608 330 544Q336 488 336 456ZM285 317T285
417Q285 471 275 535Q264 595 229 647Q212 671 186 684T126 698V697Q126 607 138 428H143Q177 430 184 430Q197 430 207 422T217 401Q217 389 194 380Q175 373 142 368Q150 219 150 151V56Q187 79 215 122T258 219Q285 317 285 417Z" />
<glyph unicode="&#xd1;" glyph-name="Ntilde" horiz-adv-x="412" d="M287 -15T225 191Q155 432 104 634V306Q104 264 112 163Q119 53 119 21Q119 12 108 6T83 -1Q62 -1 62 15L64 44Q66 76 66 86Q66 139 60 254Q54 371 54 396V524Q54 555 57 616Q61 669 61 708V714Q61
764 83 764Q96 764 116 720Q149 648 200 462Q229 354 268 184Q267 188 284 115L285 110Q285 207 287 284L289 458V754Q293 779 321 779Q348 779 348 740V734Q342 722 342 705Q342 644 339 521Q336 397 336 335V30Q336 14 328 0T307 -15Q287 -15 225 191ZM489 778T471
784T446 800Q439 809 429 815T407 821Q400 818 397 813T396 802V800Q396 787 381 782Q365 782 355 789T345 811Q345 836 365 852T418 869Q429 869 461 849Q493 829 502 829Q511 829 516 835T523 849Q525 857 530 863T545 869Q561 869 569 862T578 843Q578 817 559
798T514 778Q489 778 471 784Z" />
<glyph unicode="&#xd2;" glyph-name="Ograve" horiz-adv-x="355" d="M164 -28T142 -10T104 39Q75 93 61 187Q51 252 46 337L45 390V444Q44 470 44 507Q44 567 49 613Q53 661 69 708Q85 749 115 766Q133 774 151 774Q204 774 235 732Q269 685 280 627Q296 557 298
493Q302 422 302 359V302Q302 285 297 238Q293 201 293 175V171Q287 143 287 105Q287 77 275 47T241 -4Q219 -28 191 -28Q164 -28 142 -10ZM213 27T227 64Q239 97 244 144T254 252Q256 278 256 319L255 411Q253 465 243 546Q235 615 213 668Q203 693 188 707T156
721Q131 721 119 682Q104 641 99 592Q93 539 92 491L91 458Q90 444 90 420V416Q90 349 104 251Q120 118 151 62Q171 27 193 27Q213 27 227 64ZM442 793T396 806T309 835T269 856Q269 868 280 881T302 895Q308 895 349 874T425 831T460 800Q460 793 453 793Q442
793 396 806Z" />
<glyph unicode="&#xd3;" glyph-name="Oacute" horiz-adv-x="355" d="M164 -28T142 -10T104 39Q75 93 61 187Q51 252 46 337L45 390V444Q44 470 44 507Q44 567 49 613Q53 661 69 708Q85 749 115 766Q133 774 151 774Q204 774 235 732Q269 685 280 627Q296 557 298
493Q302 422 302 359V302Q302 285 297 238Q293 201 293 175V171Q287 143 287 105Q287 77 275 47T241 -4Q219 -28 191 -28Q164 -28 142 -10ZM213 27T227 64Q239 97 244 144T254 252Q256 278 256 319L255 411Q253 465 243 546Q235 615 213 668Q203 693 188 707T156
721Q131 721 119 682Q104 641 99 592Q93 539 92 491L91 458Q90 444 90 420V416Q90 349 104 251Q120 118 151 62Q171 27 193 27Q213 27 227 64ZM134 789T129 792T124 802Q124 807 129 812L145 826Q150 831 201 875L260 926Q264 928 269 928Q281 928 291 916T301
891Q301 879 294 875Q258 847 148 791Q146 789 140 789Q134 789 129 792Z" />
<glyph unicode="&#xd4;" glyph-name="Ocircumflex" horiz-adv-x="355" d="M164 -28T142 -10T104 39Q75 93 61 187Q51 252 46 337L45 390V444Q44 470 44 507Q44 567 49 613Q53 661 69 708Q85 749 115 766Q133 774 151 774Q204 774 235 732Q269 685 280 627Q296
557 298 493Q302 422 302 359V302Q302 285 297 238Q293 201 293 175V171Q287 143 287 105Q287 77 275 47T241 -4Q219 -28 191 -28Q164 -28 142 -10ZM213 27T227 64Q239 97 244 144T254 252Q256 278 256 319L255 411Q253 465 243 546Q235 615 213 668Q203 693 188
707T156 721Q131 721 119 682Q104 641 99 592Q93 539 92 491L91 458Q90 444 90 420V416Q90 349 104 251Q120 118 151 62Q171 27 193 27Q213 27 227 64ZM226 788T224 795L185 930L134 802Q131 795 120 795Q110 795 103 800T95 815Q95 821 97 824L132 912Q136 920
144 939T156 965Q167 983 179 989Q187 991 193 991Q201 991 207 982Q221 960 232 914L245 866Q254 830 258 818Q259 815 259 809Q259 800 252 794T236 788Q226 788 224 795Z" />
<glyph unicode="&#xd5;" glyph-name="Otilde" horiz-adv-x="355" d="M164 -28T142 -10T104 39Q75 93 61 187Q51 252 46 337L45 390V444Q44 470 44 507Q44 567 49 613Q53 661 69 708Q85 749 115 766Q133 774 151 774Q204 774 235 732Q269 685 280 627Q296 557 298
493Q302 422 302 359V302Q302 285 297 238Q293 201 293 175V171Q287 143 287 105Q287 77 275 47T241 -4Q219 -28 191 -28Q164 -28 142 -10ZM213 27T227 64Q239 97 244 144T254 252Q256 278 256 319L255 411Q253 465 243 546Q235 615 213 668Q203 693 188 707T156
721Q131 721 119 682Q104 641 99 592Q93 539 92 491L91 458Q90 444 90 420V416Q90 349 104 251Q120 118 151 62Q171 27 193 27Q213 27 227 64ZM436 792T418 798T393 814Q386 823 376 829T354 835Q347 832 344 827T343 816V814Q343 801 328 796Q312 796 302 803T292
825Q292 850 312 866T365 883Q376 883 408 863Q440 843 449 843Q458 843 463 849T470 863Q472 871 477 877T492 883Q508 883 516 876T525 857Q525 831 506 812T461 792Q436 792 418 798Z" />
<glyph unicode="&#xd6;" glyph-name="Odieresis" horiz-adv-x="355" d="M164 -28T142 -10T104 39Q75 93 61 187Q51 252 46 337L45 390V444Q44 470 44 507Q44 567 49 613Q53 661 69 708Q85 749 115 766Q133 774 151 774Q204 774 235 732Q269 685 280 627Q296 557
298 493Q302 422 302 359V302Q302 285 297 238Q293 201 293 175V171Q287 143 287 105Q287 77 275 47T241 -4Q219 -28 191 -28Q164 -28 142 -10ZM213 27T227 64Q239 97 244 144T254 252Q256 278 256 319L255 411Q253 465 243 546Q235 615 213 668Q203 693 188 707T156
721Q131 721 119 682Q104 641 99 592Q93 539 92 491L91 458Q90 444 90 420V416Q90 349 104 251Q120 118 151 62Q171 27 193 27Q213 27 227 64ZM81 798T71 809T60 834Q60 849 71 860T98 872Q112 872 122 861T133 835Q133 819 122 809T94 798Q81 798 71 809ZM242
793T232 804T221 829Q221 844 232 855T259 867Q273 867 284 856T295 830Q295 814 284 804T255 793Q242 793 232 804Z" />
<glyph unicode="&#xd7;" glyph-name="multiply" horiz-adv-x="404" d="M268 201Q266 204 261 209T247 224L215 258Q199 274 197 274Q192 274 180 258Q145 210 123 210Q111 210 102 219T92 239Q92 252 136 290Q152 305 158 312L129 334Q102 356 90 372T77 402Q77
413 86 421T106 430Q112 430 131 414Q144 403 172 377Q198 353 199 352Q213 360 238 393Q247 406 259 414T283 423Q294 423 302 415T310 396Q310 386 300 375T276 355Q262 346 252 335T242 314Q242 305 253 294T281 274Q320 249 320 231Q320 217 309 206T284 195L268
201Z" />
<glyph unicode="&#xd8;" glyph-name="Oslash" horiz-adv-x="356" d="M60 -109L90 70Q67 132 56 219T45 390V444Q44 470 44 507Q44 567 49 614Q53 663 69 708Q86 749 115 766Q133 774 151 774Q188 774 212 754L234 878H273L242 723Q282 665 293 552Q299 502 300
461T302 358V329V302Q302 285 297 238Q293 201 293 175V171Q287 143 287 105Q287 77 275 47T241 -4Q219 -28 191 -28Q168 -28 151 -16T117 23L82 -137L60 -109ZM201 691Q182 721 156 721Q131 721 119 682Q104 641 99 592Q93 539 92 491L91 458Q90 444 90 420V416Q90
380 96 315T112 193L201 691ZM213 27T227 64Q239 97 244 144T254 252Q256 278 256 319Q256 529 225 634L130 117Q155 27 193 27Q213 27 227 64Z" />
<glyph unicode="&#xd9;" glyph-name="Ugrave" horiz-adv-x="401" d="M172 -18T136 36Q97 91 81 171Q63 256 58 353Q53 441 53 544V627Q54 662 54 701Q46 709 46 721Q46 733 55 742T75 752Q111 752 111 681Q111 635 116 507Q121 379 121 333Q126 320 130 281T135
217Q135 195 142 163T162 97Q175 62 196 40T240 17Q254 17 263 26T276 52Q282 80 282 107V302Q282 339 275 396Q269 459 269 491V498Q269 514 268 527L267 556Q267 584 264 641Q260 692 260 727Q260 738 271 746T297 754L322 731V714Q322 702 318 685Q314 657 314
653Q314 562 324 402Q333 234 333 141Q333 91 323 53Q317 30 307 16T278 -8Q261 -18 234 -18Q172 -18 136 36ZM470 779T424 792T337 821T297 842Q297 854 308 867T330 881Q336 881 377 860T453 817T488 786Q488 779 481 779Q470 779 424 792Z" />
<glyph unicode="&#xda;" glyph-name="Uacute" horiz-adv-x="401" d="M172 -18T136 36Q97 91 81 171Q63 256 58 353Q53 441 53 544V627Q54 662 54 701Q46 709 46 721Q46 733 55 742T75 752Q111 752 111 681Q111 635 116 507Q121 379 121 333Q126 320 130 281T135
217Q135 195 142 163T162 97Q175 62 196 40T240 17Q254 17 263 26T276 52Q282 80 282 107V302Q282 339 275 396Q269 459 269 491V498Q269 514 268 527L267 556Q267 584 264 641Q260 692 260 727Q260 738 271 746T297 754L322 731V714Q322 702 318 685Q314 657 314
653Q314 562 324 402Q333 234 333 141Q333 91 323 53Q317 30 307 16T278 -8Q261 -18 234 -18Q172 -18 136 36ZM162 775T157 778T152 788Q152 793 157 798L173 812Q178 817 229 861L288 912Q292 914 297 914Q309 914 319 902T329 877Q329 865 322 861Q286 833 176
777Q174 775 168 775Q162 775 157 778Z" />
<glyph unicode="&#xdb;" glyph-name="Ucircumflex" horiz-adv-x="401" d="M172 -18T136 36Q97 91 81 171Q63 256 58 353Q53 441 53 544V627Q54 662 54 701Q46 709 46 721Q46 733 55 742T75 752Q111 752 111 681Q111 635 116 507Q121 379 121 333Q126 320 130 281T135
217Q135 195 142 163T162 97Q175 62 196 40T240 17Q254 17 263 26T276 52Q282 80 282 107V302Q282 339 275 396Q269 459 269 491V498Q269 514 268 527L267 556Q267 584 264 641Q260 692 260 727Q260 738 271 746T297 754L322 731V714Q322 702 318 685Q314 657 314
653Q314 562 324 402Q333 234 333 141Q333 91 323 53Q317 30 307 16T278 -8Q261 -18 234 -18Q172 -18 136 36ZM254 774T252 781L213 916L162 788Q159 781 148 781Q138 781 131 786T123 801Q123 807 125 810L160 898Q164 906 172 925T184 951Q195 969 207 975Q215
977 221 977Q229 977 235 968Q249 946 260 900L273 852Q282 816 286 804Q287 801 287 795Q287 786 280 780T264 774Q254 774 252 781Z" />
<glyph unicode="&#xdc;" glyph-name="Udieresis" horiz-adv-x="401" d="M172 -18T136 36Q97 91 81 171Q63 256 58 353Q53 441 53 544V627Q54 662 54 701Q46 709 46 721Q46 733 55 742T75 752Q111 752 111 681Q111 635 116 507Q121 379 121 333Q126 320 130 281T135
217Q135 195 142 163T162 97Q175 62 196 40T240 17Q254 17 263 26T276 52Q282 80 282 107V302Q282 339 275 396Q269 459 269 491V498Q269 514 268 527L267 556Q267 584 264 641Q260 692 260 727Q260 738 271 746T297 754L322 731V714Q322 702 318 685Q314 657 314
653Q314 562 324 402Q333 234 333 141Q333 91 323 53Q317 30 307 16T278 -8Q261 -18 234 -18Q172 -18 136 36ZM109 784T99 795T88 820Q88 835 99 846T126 858Q140 858 150 847T161 821Q161 805 150 795T122 784Q109 784 99 795ZM270 779T260 790T249 815Q249 830
260 841T287 853Q301 853 312 842T323 816Q323 800 312 790T283 779Q270 779 260 790Z" />
<glyph unicode="&#xdd;" glyph-name="Yacute" horiz-adv-x="265" d="M121 -12T114 -5T106 12L108 109Q111 174 111 206Q111 235 102 292Q92 348 92 379Q92 417 81 466T53 560Q37 603 26 652T15 739Q15 746 23 751T40 756Q51 756 61 733Q73 707 84 660T97 604L110
535L120 491Q123 507 125 533Q131 616 140 671Q147 709 156 729Q166 751 180 751Q207 751 207 741Q207 684 183 573Q159 462 159 404L157 388Q155 373 156 370V354Q156 311 159 222L161 89L163 66L165 42V17Q165 5 155 -3T131 -12Q121 -12 114 -5ZM114 775T109
778T104 788Q104 793 109 798L125 812Q130 817 181 861L240 912Q244 914 249 914Q261 914 271 902T281 877Q281 865 274 861Q238 833 128 777Q126 775 120 775Q114 775 109 778Z" />
<glyph unicode="&#xde;" glyph-name="Thorn" horiz-adv-x="262" d="M71 -5T65 4T58 28Q58 106 53 331Q47 532 47 633L46 726Q46 756 71 756Q105 756 105 695V676L104 661Q145 655 175 625T220 553Q232 513 232 471Q232 397 200 338T107 245L109 177L111 142Q115
81 115 36Q115 -5 82 -5Q71 -5 65 4ZM144 330T162 371T181 463Q181 504 175 527T154 567Q137 585 106 610H103L104 452L105 293Q144 330 162 371Z" />
<glyph unicode="&#xdf;" glyph-name="germandbls" horiz-adv-x="323" d="M49 -23T49 2L51 132Q54 219 54 263Q54 333 50 436L48 493L46 610Q46 651 57 694Q69 741 102 763Q121 774 143 774Q169 774 189 758T219 713Q236 661 236 610Q236 522 174 419Q227 379 246
336T265 217Q265 160 242 109T176 24L174 23L168 22Q159 22 152 27T145 40Q145 52 181 98Q195 118 205 146T216 200Q216 250 208 288T186 346Q171 366 160 377Q157 380 148 389T134 404T129 417Q129 425 144 459Q161 501 174 545T187 622Q187 646 178 679Q173 697
164 708T143 719Q130 719 121 710T105 686Q95 657 95 632Q95 544 103 328Q110 138 110 22Q110 0 103 -11T78 -23Q49 -23 49 2Z" />
<glyph unicode="&#xe0;" glyph-name="agrave" horiz-adv-x="299" d="M235 -9T224 -2T213 24Q213 54 203 126L199 147L100 162Q94 139 83 69Q77 20 64 4Q57 -5 44 -5Q32 -5 22 2T12 21L14 26L15 30Q81 287 115 537Q115 541 116 550T118 578Q121 615 124 637T136
670H170Q184 670 194 664T204 645Q204 569 225 419Q245 265 245 203Q245 197 250 172Q255 149 255 142Q255 135 265 82Q274 34 274 20V19Q274 -3 258 -9Q235 -9 224 -2ZM189 198T189 220Q189 310 173 450L163 554Q120 319 104 199Q119 189 192 183Q189 198 189
220ZM453 718T407 731T320 760T280 781Q280 793 291 806T313 820Q319 820 360 799T436 756T471 725Q471 718 464 718Q453 718 407 731Z" />
<glyph unicode="&#xe1;" glyph-name="aacute" horiz-adv-x="299" d="M235 -9T224 -2T213 24Q213 54 203 126L199 147L100 162Q94 139 83 69Q77 20 64 4Q57 -5 44 -5Q32 -5 22 2T12 21L14 26L15 30Q81 287 115 537Q115 541 116 550T118 578Q121 615 124 637T136
670H170Q184 670 194 664T204 645Q204 569 225 419Q245 265 245 203Q245 197 250 172Q255 149 255 142Q255 135 265 82Q274 34 274 20V19Q274 -3 258 -9Q235 -9 224 -2ZM189 198T189 220Q189 310 173 450L163 554Q120 319 104 199Q119 189 192 183Q189 198 189
220ZM159 714T154 717T149 727Q149 732 154 737L170 751Q175 756 226 800L285 851Q289 853 294 853Q306 853 316 841T326 816Q326 804 319 800Q283 772 173 716Q171 714 165 714Q159 714 154 717Z" />
<glyph unicode="&#xe2;" glyph-name="acircumflex" horiz-adv-x="299" d="M235 -9T224 -2T213 24Q213 54 203 126L199 147L100 162Q94 139 83 69Q77 20 64 4Q57 -5 44 -5Q32 -5 22 2T12 21L14 26L15 30Q81 287 115 537Q115 541 116 550T118 578Q121 615 124 637T136
670H170Q184 670 194 664T204 645Q204 569 225 419Q245 265 245 203Q245 197 250 172Q255 149 255 142Q255 135 265 82Q274 34 274 20V19Q274 -3 258 -9Q235 -9 224 -2ZM189 198T189 220Q189 310 173 450L163 554Q120 319 104 199Q119 189 192 183Q189 198 189
220ZM479 679T477 686L438 821L387 693Q384 686 373 686Q363 686 356 691T348 706Q348 712 350 715L385 803Q389 811 397 830T409 856Q420 874 432 880Q440 882 446 882Q454 882 460 873Q474 851 485 805L498 757Q507 721 511 709Q512 706 512 700Q512 691 505
685T489 679Q479 679 477 686Z" />
<glyph unicode="&#xe3;" glyph-name="atilde" horiz-adv-x="299" d="M235 -9T224 -2T213 24Q213 54 203 126L199 147L100 162Q94 139 83 69Q77 20 64 4Q57 -5 44 -5Q32 -5 22 2T12 21L14 26L15 30Q81 287 115 537Q115 541 116 550T118 578Q121 615 124 637T136
670H170Q184 670 194 664T204 645Q204 569 225 419Q245 265 245 203Q245 197 250 172Q255 149 255 142Q255 135 265 82Q274 34 274 20V19Q274 -3 258 -9Q235 -9 224 -2ZM189 198T189 220Q189 310 173 450L163 554Q120 319 104 199Q119 189 192 183Q189 198 189
220ZM457 717T439 723T414 739Q407 748 397 754T375 760Q368 757 365 752T364 741V739Q364 726 349 721Q333 721 323 728T313 750Q313 775 333 791T386 808Q397 808 429 788Q461 768 470 768Q479 768 484 774T491 788Q493 796 498 802T513 808Q529 808 537 801T546
782Q546 756 527 737T482 717Q457 717 439 723Z" />
<glyph unicode="&#xe4;" glyph-name="adieresis" horiz-adv-x="299" d="M235 -9T224 -2T213 24Q213 54 203 126L199 147L100 162Q94 139 83 69Q77 20 64 4Q57 -5 44 -5Q32 -5 22 2T12 21L14 26L15 30Q81 287 115 537Q115 541 116 550T118 578Q121 615 124 637T136
670H170Q184 670 194 664T204 645Q204 569 225 419Q245 265 245 203Q245 197 250 172Q255 149 255 142Q255 135 265 82Q274 34 274 20V19Q274 -3 258 -9Q235 -9 224 -2ZM189 198T189 220Q189 310 173 450L163 554Q120 319 104 199Q119 189 192 183Q189 198 189
220ZM78 738T68 749T57 774Q57 789 68 800T95 812Q109 812 119 801T130 775Q130 759 119 749T91 738Q78 738 68 749ZM239 733T229 744T218 769Q218 784 229 795T256 807Q270 807 281 796T292 770Q292 754 281 744T252 733Q239 733 229 744Z" />
<glyph unicode="&#xe5;" glyph-name="aring" horiz-adv-x="299" d="M235 -9T224 -2T213 24Q213 54 203 126L199 147L100 162Q94 139 83 69Q77 20 64 4Q57 -5 44 -5Q32 -5 22 2T12 21L14 26L15 30Q81 287 115 537Q115 541 116 550T118 578Q121 615 124 637T136
670H170Q184 670 194 664T204 645Q204 569 225 419Q245 265 245 203Q245 197 250 172Q255 149 255 142Q255 135 265 82Q274 34 274 20V19Q274 -3 258 -9Q235 -9 224 -2ZM189 198T189 220Q189 310 173 450L163 554Q120 319 104 199Q119 189 192 183Q189 198 189
220ZM397 709T381 718T356 744Q340 776 340 809Q340 844 362 867T420 890Q466 890 490 871Q511 854 518 829Q520 815 520 809Q520 785 509 762Q495 730 462 716Q445 709 420 709Q397 709 381 718ZM441 747T454 753T474 771Q484 787 484 807Q484 826 469 840T425
854Q402 854 391 836T379 789Q379 775 393 761T424 747Q441 747 454 753Z" />
<glyph unicode="&#xe6;" glyph-name="ae" horiz-adv-x="438" d="M250 1H251Q259 94 259 124L257 216Q254 279 254 309Q243 309 233 308Q213 307 190 304Q187 303 180 302T168 298L119 110Q116 102 114 84Q110 64 105 46T93 15Q83 0 72 0Q65 0 59 7T53 23Q53 74
80 182Q107 287 140 400L169 496Q194 577 202 603Q219 657 225 674Q226 678 228 687T233 703Q236 709 238 717Q243 728 246 731Q248 734 250 737T255 743Q265 754 281 754L320 756Q345 759 358 759Q401 759 401 731V729L391 708Q334 708 296 703Q296 678 300 639Q303
594 303 569L301 459Q300 411 300 350Q307 350 334 355Q366 359 372 359H377L397 335Q397 303 342 303H338L299 304L301 177Q302 118 302 40Q317 40 357 45Q388 50 413 50Q426 50 436 44T446 26Q446 -6 327 -6H312Q302 -6 291 -13Q278 -21 272 -21L250 1ZM225 339T252
345L253 378Q253 391 255 445Q256 496 256 563Q256 612 255 626Q200 438 178 336Q225 339 252 345Z" />
<glyph unicode="&#xe7;" glyph-name="ccedilla" horiz-adv-x="279" d="M173 -14T149 -8T111 7Q44 50 44 242V269V300V324Q44 364 45 395T49 464Q52 503 58 527T78 583Q90 612 107 628T153 655Q178 666 215 666Q230 666 238 659T246 641Q246 631 240 623T224 614H177Q157
614 142 589T121 524Q108 450 108 404V399L106 303Q104 260 104 206Q104 168 107 144Q112 108 124 84Q136 57 165 45Q180 39 198 39Q209 39 220 47Q233 47 241 42T250 25Q250 -14 195 -14Q173 -14 149 -8ZM146 -215T133 -208T119 -188Q119 -178 130 -178Q134 -178
146 -183Q158 -188 162 -188Q179 -188 190 -168T201 -119Q201 -86 186 -74L173 -76L159 -78Q144 -78 132 -58Q140 -37 140 0V11L169 15Q165 -15 165 -36Q238 -40 238 -136Q238 -152 228 -170T199 -202T162 -215Q146 -215 133 -208Z" />
<glyph unicode="&#xe8;" glyph-name="egrave" horiz-adv-x="284" d="M94 -13T84 -4T72 18V44V64Q71 73 71 85Q71 106 68 149L66 213Q66 262 69 359Q73 446 73 505Q73 519 70 547Q67 576 67 589Q67 660 109 660Q142 660 185 647T229 616Q229 606 221 598T200 584Q158
599 124 604Q125 589 125 561Q125 521 124 489Q121 441 121 417L124 401L140 402Q148 403 160 403Q208 403 208 375Q208 364 199 357T176 349Q158 349 148 351H123Q125 325 125 275Q125 225 124 185Q121 124 121 94Q121 38 123 38L156 39Q173 40 197 40Q235 40
235 16Q235 2 223 -5T192 -13H107Q94 -13 84 -4ZM155 698T109 711T22 740T-18 761Q-18 773 -7 786T15 800Q21 800 62 779T138 736T173 705Q173 698 166 698Q155 698 109 711Z" />
<glyph unicode="&#xe9;" glyph-name="eacute" horiz-adv-x="284" d="M94 -13T84 -4T72 18V44V64Q71 73 71 85Q71 106 68 149L66 213Q66 262 69 359Q73 446 73 505Q73 519 70 547Q67 576 67 589Q67 660 109 660Q142 660 185 647T229 616Q229 606 221 598T200 584Q158
599 124 604Q125 589 125 561Q125 521 124 489Q121 441 121 417L124 401L140 402Q148 403 160 403Q208 403 208 375Q208 364 199 357T176 349Q158 349 148 351H123Q125 325 125 275Q125 225 124 185Q121 124 121 94Q121 38 123 38L156 39Q173 40 197 40Q235 40
235 16Q235 2 223 -5T192 -13H107Q94 -13 84 -4ZM117 694T112 697T107 707Q107 712 112 717L128 731Q133 736 184 780L243 831Q247 833 252 833Q264 833 274 821T284 796Q284 784 277 780Q241 752 131 696Q129 694 123 694Q117 694 112 697Z" />
<glyph unicode="&#xea;" glyph-name="ecircumflex" horiz-adv-x="284" d="M94 -13T84 -4T72 18V44V64Q71 73 71 85Q71 106 68 149L66 213Q66 262 69 359Q73 446 73 505Q73 519 70 547Q67 576 67 589Q67 660 109 660Q142 660 185 647T229 616Q229 606 221 598T200
584Q158 599 124 604Q125 589 125 561Q125 521 124 489Q121 441 121 417L124 401L140 402Q148 403 160 403Q208 403 208 375Q208 364 199 357T176 349Q158 349 148 351H123Q125 325 125 275Q125 225 124 185Q121 124 121 94Q121 38 123 38L156 39Q173 40 197 40Q235
40 235 16Q235 2 223 -5T192 -13H107Q94 -13 84 -4ZM437 659T435 666L396 801L345 673Q342 666 331 666Q321 666 314 671T306 686Q306 692 308 695L343 783Q347 791 355 810T367 836Q378 854 390 860Q398 862 404 862Q412 862 418 853Q432 831 443 785L456 737Q465
701 469 689Q470 686 470 680Q470 671 463 665T447 659Q437 659 435 666Z" />
<glyph unicode="&#xeb;" glyph-name="edieresis" horiz-adv-x="284" d="M94 -13T84 -4T72 18V44V64Q71 73 71 85Q71 106 68 149L66 213Q66 262 69 359Q73 446 73 505Q73 519 70 547Q67 576 67 589Q67 660 109 660Q142 660 185 647T229 616Q229 606 221 598T200
584Q158 599 124 604Q125 589 125 561Q125 521 124 489Q121 441 121 417L124 401L140 402Q148 403 160 403Q208 403 208 375Q208 364 199 357T176 349Q158 349 148 351H123Q125 325 125 275Q125 225 124 185Q121 124 121 94Q121 38 123 38L156 39Q173 40 197 40Q235
40 235 16Q235 2 223 -5T192 -13H107Q94 -13 84 -4ZM292 718T282 729T271 754Q271 769 282 780T309 792Q323 792 333 781T344 755Q344 739 333 729T305 718Q292 718 282 729ZM453 713T443 724T432 749Q432 764 443 775T470 787Q484 787 495 776T506 750Q506 734
495 724T466 713Q453 713 443 724Z" />
<glyph unicode="&#xec;" glyph-name="igrave" horiz-adv-x="226" d="M24 1T24 31Q24 55 55 55H66L76 54Q84 54 87 59T90 77Q90 94 88 130Q85 154 81 216Q72 369 72 447Q72 475 73 498L74 549Q74 582 71 604Q55 600 48 600Q24 600 24 624Q24 636 39 645T77 658Q117
666 148 666Q160 666 168 658T177 638Q177 627 171 619T154 611Q148 611 144 612H136Q126 612 122 608T117 591Q117 494 129 299Q131 263 137 193Q142 147 142 99V61Q148 62 162 62Q204 62 204 27V21L179 4Q178 4 173 4T152 3Q120 1 111 1Q24 1 24 31ZM126 715T80
728T-7 757T-47 778Q-47 790 -36 803T-14 817Q-8 817 33 796T109 753T144 722Q144 715 137 715Q126 715 80 728Z" />
<glyph unicode="&#xed;" glyph-name="iacute" horiz-adv-x="226" d="M24 1T24 31Q24 55 55 55H66L76 54Q84 54 87 59T90 77Q90 94 88 130Q85 154 81 216Q72 369 72 447Q72 475 73 498L74 549Q74 582 71 604Q55 600 48 600Q24 600 24 624Q24 636 39 645T77 658Q117
666 148 666Q160 666 168 658T177 638Q177 627 171 619T154 611Q148 611 144 612H136Q126 612 122 608T117 591Q117 494 129 299Q131 263 137 193Q142 147 142 99V61Q148 62 162 62Q204 62 204 27V21L179 4Q178 4 173 4T152 3Q120 1 111 1Q24 1 24 31ZM344 711T339
714T334 724Q334 729 339 734L355 748Q360 753 411 797L470 848Q474 850 479 850Q491 850 501 838T511 813Q511 801 504 797Q468 769 358 713Q356 711 350 711Q344 711 339 714Z" />
<glyph unicode="&#xee;" glyph-name="icircumflex" horiz-adv-x="226" d="M24 1T24 31Q24 55 55 55H66L76 54Q84 54 87 59T90 77Q90 94 88 130Q85 154 81 216Q72 369 72 447Q72 475 73 498L74 549Q74 582 71 604Q55 600 48 600Q24 600 24 624Q24 636 39 645T77
658Q117 666 148 666Q160 666 168 658T177 638Q177 627 171 619T154 611Q148 611 144 612H136Q126 612 122 608T117 591Q117 494 129 299Q131 263 137 193Q142 147 142 99V61Q148 62 162 62Q204 62 204 27V21L179 4Q178 4 173 4T152 3Q120 1 111 1Q24 1 24 31ZM408
676T406 683L367 818L316 690Q313 683 302 683Q292 683 285 688T277 703Q277 709 279 712L314 800Q318 808 326 827T338 853Q349 871 361 877Q369 879 375 879Q383 879 389 870Q403 848 414 802L427 754Q436 718 440 706Q441 703 441 697Q441 688 434 682T418 676Q408
676 406 683Z" />
<glyph unicode="&#xef;" glyph-name="idieresis" horiz-adv-x="226" d="M24 1T24 31Q24 55 55 55H66L76 54Q84 54 87 59T90 77Q90 94 88 130Q85 154 81 216Q72 369 72 447Q72 475 73 498L74 549Q74 582 71 604Q55 600 48 600Q24 600 24 624Q24 636 39 645T77 658Q117
666 148 666Q160 666 168 658T177 638Q177 627 171 619T154 611Q148 611 144 612H136Q126 612 122 608T117 591Q117 494 129 299Q131 263 137 193Q142 147 142 99V61Q148 62 162 62Q204 62 204 27V21L179 4Q178 4 173 4T152 3Q120 1 111 1Q24 1 24 31ZM263 735T253
746T242 771Q242 786 253 797T280 809Q294 809 304 798T315 772Q315 756 304 746T276 735Q263 735 253 746ZM424 730T414 741T403 766Q403 781 414 792T441 804Q455 804 466 793T477 767Q477 751 466 741T437 730Q424 730 414 741Z" />
<glyph unicode="&#xf0;" glyph-name="eth" horiz-adv-x="287" d="M96 -7T80 20Q62 45 57 81Q53 107 53 149Q51 171 51 195Q51 264 62 329Q68 370 79 398T109 447Q131 467 156 467L168 466Q157 553 145 611Q100 606 63 606Q59 606 57 611T54 621Q54 644 135 654Q121
709 108 719Q91 722 80 730T68 751Q68 760 76 766T94 772Q157 772 188 660L242 662Q246 662 248 658T250 647Q250 628 199 619Q225 498 225 313L223 226Q220 168 220 138Q220 117 219 100T214 62Q209 39 201 26T176 2Q160 -7 136 -7Q96 -7 80 20ZM149 35T159 47Q165
56 167 74V90Q167 101 168 103Q178 232 178 333Q178 414 149 432Q101 420 101 190V178V159Q101 35 134 35Q149 35 159 47Z" />
<glyph unicode="&#xf1;" glyph-name="ntilde" horiz-adv-x="479" d="M322 -3T316 3T307 26L301 45V47V50Q301 83 233 275T125 559V56L129 49Q130 47 133 42T136 32Q136 19 127 10T105 1Q73 1 73 62L72 233Q71 310 71 405Q71 437 74 498Q77 561 77 591Q77 638 113
665V659Q119 661 121 661Q144 661 179 581Q207 517 229 446T289 244L299 208Q322 127 334 92Q354 307 354 600V613Q353 619 353 626Q353 656 377 656Q391 656 398 645T406 617V542Q404 388 394 208T370 5Q341 -3 334 -3Q322 -3 316 3ZM267 697T249 703T224 719Q217
728 207 734T185 740Q178 737 175 732T174 721V719Q174 706 159 701Q143 701 133 708T123 730Q123 755 143 771T196 788Q207 788 239 768Q271 748 280 748Q289 748 294 754T301 768Q303 776 308 782T323 788Q339 788 347 781T356 762Q356 736 337 717T292 697Q267
697 249 703Z" />
<glyph unicode="&#xf2;" glyph-name="ograve" horiz-adv-x="360" d="M152 -19T130 -3T94 42Q65 103 58 175Q49 243 49 306Q49 318 50 326V344Q50 349 49 349V367L50 437Q51 469 58 539Q63 587 81 632Q88 652 99 662T124 673Q164 673 196 659T250 618Q270 593 284
557T304 479Q310 437 310 390V382Q310 351 311 326L312 269Q312 -19 178 -19Q152 -19 130 -3ZM192 23T207 37T230 77Q249 128 253 187Q258 238 258 275Q258 320 251 393Q245 470 245 508V526Q243 564 220 592T162 620Q128 620 117 581Q107 550 107 501Q107 482
108 469V442L106 396Q104 375 104 350Q104 296 107 243Q111 168 127 97Q143 23 174 23Q192 23 207 37ZM435 703T389 716T302 745T262 766Q262 778 273 791T295 805Q301 805 342 784T418 741T453 710Q453 703 446 703Q435 703 389 716Z" />
<glyph unicode="&#xf3;" glyph-name="oacute" horiz-adv-x="360" d="M152 -19T130 -3T94 42Q65 103 58 175Q49 243 49 306Q49 318 50 326V344Q50 349 49 349V367L50 437Q51 469 58 539Q63 587 81 632Q88 652 99 662T124 673Q164 673 196 659T250 618Q270 593 284
557T304 479Q310 437 310 390V382Q310 351 311 326L312 269Q312 -19 178 -19Q152 -19 130 -3ZM192 23T207 37T230 77Q249 128 253 187Q258 238 258 275Q258 320 251 393Q245 470 245 508V526Q243 564 220 592T162 620Q128 620 117 581Q107 550 107 501Q107 482
108 469V442L106 396Q104 375 104 350Q104 296 107 243Q111 168 127 97Q143 23 174 23Q192 23 207 37ZM141 699T136 702T131 712Q131 717 136 722L152 736Q157 741 208 785L267 836Q271 838 276 838Q288 838 298 826T308 801Q308 789 301 785Q265 757 155 701Q153
699 147 699Q141 699 136 702Z" />
<glyph unicode="&#xf4;" glyph-name="ocircumflex" horiz-adv-x="360" d="M152 -19T130 -3T94 42Q65 103 58 175Q49 243 49 306Q49 318 50 326V344Q50 349 49 349V367L50 437Q51 469 58 539Q63 587 81 632Q88 652 99 662T124 673Q164 673 196 659T250 618Q270
593 284 557T304 479Q310 437 310 390V382Q310 351 311 326L312 269Q312 -19 178 -19Q152 -19 130 -3ZM192 23T207 37T230 77Q249 128 253 187Q258 238 258 275Q258 320 251 393Q245 470 245 508V526Q243 564 220 592T162 620Q128 620 117 581Q107 550 107 501Q107
482 108 469V442L106 396Q104 375 104 350Q104 296 107 243Q111 168 127 97Q143 23 174 23Q192 23 207 37ZM461 664T459 671L420 806L369 678Q366 671 355 671Q345 671 338 676T330 691Q330 697 332 700L367 788Q371 796 379 815T391 841Q402 859 414 865Q422 867
428 867Q436 867 442 858Q456 836 467 790L480 742Q489 706 493 694Q494 691 494 685Q494 676 487 670T471 664Q461 664 459 671Z" />
<glyph unicode="&#xf5;" glyph-name="otilde" horiz-adv-x="360" d="M152 -19T130 -3T94 42Q65 103 58 175Q49 243 49 306Q49 318 50 326V344Q50 349 49 349V367L50 437Q51 469 58 539Q63 587 81 632Q88 652 99 662T124 673Q164 673 196 659T250 618Q270 593 284
557T304 479Q310 437 310 390V382Q310 351 311 326L312 269Q312 -19 178 -19Q152 -19 130 -3ZM192 23T207 37T230 77Q249 128 253 187Q258 238 258 275Q258 320 251 393Q245 470 245 508V526Q243 564 220 592T162 620Q128 620 117 581Q107 550 107 501Q107 482
108 469V442L106 396Q104 375 104 350Q104 296 107 243Q111 168 127 97Q143 23 174 23Q192 23 207 37ZM439 702T421 708T396 724Q389 733 379 739T357 745Q350 742 347 737T346 726V724Q346 711 331 706Q315 706 305 713T295 735Q295 760 315 776T368 793Q379 793
411 773Q443 753 452 753Q461 753 466 759T473 773Q475 781 480 787T495 793Q511 793 519 786T528 767Q528 741 509 722T464 702Q439 702 421 708Z" />
<glyph unicode="&#xf6;" glyph-name="odieresis" horiz-adv-x="360" d="M152 -19T130 -3T94 42Q65 103 58 175Q49 243 49 306Q49 318 50 326V344Q50 349 49 349V367L50 437Q51 469 58 539Q63 587 81 632Q88 652 99 662T124 673Q164 673 196 659T250 618Q270 593
284 557T304 479Q310 437 310 390V382Q310 351 311 326L312 269Q312 -19 178 -19Q152 -19 130 -3ZM192 23T207 37T230 77Q249 128 253 187Q258 238 258 275Q258 320 251 393Q245 470 245 508V526Q243 564 220 592T162 620Q128 620 117 581Q107 550 107 501Q107
482 108 469V442L106 396Q104 375 104 350Q104 296 107 243Q111 168 127 97Q143 23 174 23Q192 23 207 37ZM316 723T306 734T295 759Q295 774 306 785T333 797Q347 797 357 786T368 760Q368 744 357 734T329 723Q316 723 306 734ZM477 718T467 729T456 754Q456
769 467 780T494 792Q508 792 519 781T530 755Q530 739 519 729T490 718Q477 718 467 729Z" />
<glyph unicode="&#xf7;" glyph-name="divide" horiz-adv-x="439" d="M202 385T191 396T180 421Q180 434 190 444T215 454Q230 454 240 443T250 417Q250 404 240 395T216 385Q202 385 191 396ZM77 288T77 320Q77 330 83 336T100 342H247L277 344L308 346Q356 346
356 316Q356 305 349 299T328 293L223 291Q151 288 117 288Q77 288 77 320ZM202 180T192 190T181 214Q181 228 191 238T215 249Q229 249 239 237T250 209Q250 196 241 188T217 180Q202 180 192 190Z" />
<glyph unicode="&#xf8;" glyph-name="oslash" horiz-adv-x="365" d="M93 -111L111 16Q93 38 80 75T60 157Q49 235 49 306Q49 318 50 326V344Q50 349 49 349V367L50 437Q51 469 58 539Q63 587 81 632Q88 652 99 662T124 673Q174 673 207 653L225 762H254L235 633Q310
564 310 390V382Q310 351 311 326L312 269Q312 -19 178 -19Q156 -19 139 -8L117 -134L93 -111ZM200 609Q181 620 162 620Q128 620 117 581Q107 550 107 501Q107 482 108 469V442L106 396Q104 375 104 350Q104 203 125 105L200 609ZM192 23T207 37T230 77Q249 128
253 187Q258 238 258 275Q258 320 251 393Q245 470 245 508V526Q244 556 228 582L146 43Q160 23 174 23Q192 23 207 37Z" />
<glyph unicode="&#xf9;" glyph-name="ugrave" horiz-adv-x="361" d="M144 -15T125 -5T94 26Q70 68 63 121Q56 167 56 231Q53 339 53 495L52 572Q51 578 51 592Q49 630 49 638Q58 659 70 659Q82 659 91 641T101 602V330Q101 290 108 224Q115 142 115 118Q115 44
178 44Q250 44 250 582V638V647Q249 650 249 655Q249 667 254 672T276 678Q289 678 296 671T306 653Q307 647 307 630Q307 614 304 579Q300 550 300 529Q300 506 298 488L296 446V438Q297 434 297 429Q297 -15 168 -15Q144 -15 125 -5ZM445 718T399 731T312 760T272
781Q272 793 283 806T305 820Q311 820 352 799T428 756T463 725Q463 718 456 718Q445 718 399 731Z" />
<glyph unicode="&#xfa;" glyph-name="uacute" horiz-adv-x="361" d="M144 -15T125 -5T94 26Q70 68 63 121Q56 167 56 231Q53 339 53 495L52 572Q51 578 51 592Q49 630 49 638Q58 659 70 659Q82 659 91 641T101 602V330Q101 290 108 224Q115 142 115 118Q115 44
178 44Q250 44 250 582V638V647Q249 650 249 655Q249 667 254 672T276 678Q289 678 296 671T306 653Q307 647 307 630Q307 614 304 579Q300 550 300 529Q300 506 298 488L296 446V438Q297 434 297 429Q297 -15 168 -15Q144 -15 125 -5ZM151 714T146 717T141 727Q141
732 146 737L162 751Q167 756 218 800L277 851Q281 853 286 853Q298 853 308 841T318 816Q318 804 311 800Q275 772 165 716Q163 714 157 714Q151 714 146 717Z" />
<glyph unicode="&#xfb;" glyph-name="ucircumflex" horiz-adv-x="361" d="M144 -15T125 -5T94 26Q70 68 63 121Q56 167 56 231Q53 339 53 495L52 572Q51 578 51 592Q49 630 49 638Q58 659 70 659Q82 659 91 641T101 602V330Q101 290 108 224Q115 142 115 118Q115
44 178 44Q250 44 250 582V638V647Q249 650 249 655Q249 667 254 672T276 678Q289 678 296 671T306 653Q307 647 307 630Q307 614 304 579Q300 550 300 529Q300 506 298 488L296 446V438Q297 434 297 429Q297 -15 168 -15Q144 -15 125 -5ZM471 679T469 686L430
821L379 693Q376 686 365 686Q355 686 348 691T340 706Q340 712 342 715L377 803Q381 811 389 830T401 856Q412 874 424 880Q432 882 438 882Q446 882 452 873Q466 851 477 805L490 757Q499 721 503 709Q504 706 504 700Q504 691 497 685T481 679Q471 679 469 686Z"
/>
<glyph unicode="&#xfc;" glyph-name="udieresis" horiz-adv-x="361" d="M144 -15T125 -5T94 26Q70 68 63 121Q56 167 56 231Q53 339 53 495L52 572Q51 578 51 592Q49 630 49 638Q58 659 70 659Q82 659 91 641T101 602V330Q101 290 108 224Q115 142 115 118Q115
44 178 44Q250 44 250 582V638V647Q249 650 249 655Q249 667 254 672T276 678Q289 678 296 671T306 653Q307 647 307 630Q307 614 304 579Q300 550 300 529Q300 506 298 488L296 446V438Q297 434 297 429Q297 -15 168 -15Q144 -15 125 -5ZM326 738T316 749T305
774Q305 789 316 800T343 812Q357 812 367 801T378 775Q378 759 367 749T339 738Q326 738 316 749ZM487 733T477 744T466 769Q466 784 477 795T504 807Q518 807 529 796T540 770Q540 754 529 744T500 733Q487 733 477 744Z" />
<glyph unicode="&#xfd;" glyph-name="yacute" horiz-adv-x="283" d="M126 -14T115 8Q126 29 126 178Q126 213 121 254L118 283Q115 310 115 324V350Q105 375 79 443T36 557Q17 610 17 629V634L40 651Q57 649 76 607Q92 570 111 501T131 428Q135 439 147 503Q159
567 174 616Q191 665 209 665Q219 665 226 659T234 644Q234 593 206 500Q176 399 176 354V53Q176 -14 143 -14Q126 -14 115 8ZM127 694T122 697T117 707Q117 712 122 717L138 731Q143 736 194 780L253 831Q257 833 262 833Q274 833 284 821T294 796Q294 784 287
780Q251 752 141 696Q139 694 133 694Q127 694 122 697Z" />
<glyph unicode="&#xfe;" glyph-name="thorn" horiz-adv-x="284" d="M83 -5T77 4T70 28Q70 100 65 302Q60 505 60 575L59 726Q59 756 83 756Q120 756 120 674Q120 648 119 631Q117 614 117 602Q157 596 187 566T232 494Q245 452 245 413Q245 351 212 304T120 230Q120
192 124 135Q127 69 127 36Q127 -5 94 -5Q83 -5 77 4ZM156 305T174 335T193 404Q193 438 191 456T179 491Q170 506 159 516T118 551H115L116 415Q117 354 117 279Q156 305 174 335Z" />
<glyph unicode="&#xff;" glyph-name="ydieresis" horiz-adv-x="283" d="M126 -14T115 8Q126 29 126 178Q126 213 121 254L118 283Q115 310 115 324V350Q105 375 79 443T36 557Q17 610 17 629V634L40 651Q57 649 76 607Q92 570 111 501T131 428Q135 439 147 503Q159
567 174 616Q191 665 209 665Q219 665 226 659T234 644Q234 593 206 500Q176 399 176 354V53Q176 -14 143 -14Q126 -14 115 8ZM302 718T292 729T281 754Q281 769 292 780T319 792Q333 792 343 781T354 755Q354 739 343 729T315 718Q302 718 292 729ZM463 713T453
724T442 749Q442 764 453 775T480 787Q494 787 505 776T516 750Q516 734 505 724T476 713Q463 713 453 724Z" />
<glyph unicode="&#x2013;" glyph-name="endash" horiz-adv-x="465" d="M242 313L104 315Q64 315 64 337Q64 348 70 354T87 360H170L208 361L266 362Q403 362 403 333Q403 323 397 317T379 311L242 313Z" />
<glyph unicode="&#x2014;" glyph-name="emdash" horiz-adv-x="535" d="M45 329T45 358Q45 368 51 374T67 380H300Q301 380 307 380T329 381Q346 382 375 382Q491 382 491 354Q491 329 407 329Q377 329 357 331L323 332L143 331L126 330L105 329Q45 329 45 358Z" />
<glyph unicode="&#x2018;" glyph-name="quoteleft" horiz-adv-x="298" d="M96 528T96 550Q96 590 113 643T153 734Q176 770 189 770Q200 770 200 750Q200 730 193 694T175 621Q163 581 145 555T106 528Q96 528 96 550Z" />
<glyph unicode="&#x2019;" glyph-name="quoteright" horiz-adv-x="289" d="M96 530T96 546Q96 567 107 618T137 715Q157 766 178 766Q196 766 196 744Q196 702 182 651T145 563Q122 528 104 528Q96 530 96 546Z" />
<glyph unicode="&#x201a;" glyph-name="quotesinglbase" horiz-adv-x="324" d="M119 -160T119 -144Q119 -124 130 -73T160 24Q180 75 202 75Q220 75 220 53Q220 11 205 -40T168 -127Q147 -163 128 -163Q119 -160 119 -144Z" />
<glyph unicode="&#x201c;" glyph-name="quotedblleft" horiz-adv-x="377" d="M209 533T209 555Q209 597 224 648T261 735Q282 771 301 771Q310 768 310 752Q310 732 299 681T270 584Q249 533 228 533Q209 533 209 555ZM84 528T84 550Q84 590 101 644T142 734Q165
770 178 770Q188 770 188 750Q188 729 182 693T164 621Q151 580 133 554T94 528Q84 528 84 550Z" />
<glyph unicode="&#x201d;" glyph-name="quotedblright" horiz-adv-x="386" d="M210 528T210 548Q225 610 232 662Q242 717 255 741Q273 771 305 771Q315 771 315 749Q315 708 298 655T257 564Q234 528 221 528Q210 528 210 548ZM84 530T84 546Q84 566 95 617T125
715Q145 766 167 766Q185 766 185 744Q185 701 171 650T133 563Q112 528 93 528Q84 530 84 546Z" />
<glyph unicode="&#x201e;" glyph-name="quotedblbase" horiz-adv-x="386" d="M188 -181T188 -161Q188 -116 213 -31Q225 9 243 35T282 62Q292 62 292 40Q292 -1 275 -54T235 -145Q212 -181 199 -181Q188 -181 188 -161ZM57 -179T57 -163Q57 -142 68 -91T98 6Q118
57 139 57Q157 57 157 35Q157 -7 143 -58T106 -146Q83 -181 65 -181Q57 -179 57 -163Z" />
<glyph unicode="&#x2022;" glyph-name="bullet" horiz-adv-x="368" d="M151 237T128 251T91 285T77 325V340Q76 346 76 355Q76 402 110 449Q115 460 138 477T172 494Q203 494 228 483T265 453Q287 416 287 380Q287 345 275 313Q259 268 223 248Q201 237 176 237Q151
237 128 251Z" />
<glyph unicode="&#x2039;" glyph-name="guilsinglleft" horiz-adv-x="368" d="M256 -10L246 -9Q189 78 123 231Q85 316 72 341Q74 369 124 479Q173 584 182 613Q182 617 186 629Q192 656 202 679Q214 707 230 707H231L233 706L255 689Q252 657 233 607T188 506Q163
457 146 413T129 343Q129 336 195 203T281 34L294 24Q292 9 286 -1T268 -11L256 -10Z" />
<glyph unicode="&#x203a;" glyph-name="guilsinglright" horiz-adv-x="368" d="M84 -11T77 -1T68 24L81 34Q115 101 173 219T232 343Q232 393 188 479Q175 505 172 510Q169 517 150 554T120 625Q108 658 106 689L128 706L133 705Q153 696 163 675Q170 655 175
633L180 613Q189 584 238 479Q289 367 290 341L115 -9H113L104 -10Q100 -11 95 -11Q84 -11 77 -1Z" />
</font>
</defs>
</svg>
